Регистрация ·  Логин: Пароль: Запомнить   · Забыли пароль?




Ответить на тему
Статистика раздачи
Размер: 11.44 ГБ | Зарегистрирован: 22 янв 2021, 04:21 | .torrent скачан: 0 раз(а), DHT: [ 67 ] раз(а)
Сидеров: [ 32  | 0 байт/сек ]   Личеров: [ 1  | 0 байт/сек ]   DHT: [ 32 / 1 ]
Автор Сообщение

Модератор

С нами: 2 года 5 месяцев
Сообщения: 3401
Россия

Сообщение 22 янв 2021, 04:21 

[Цитировать]


Информация о фильме
Название: Дичь
Оригинальное название: Freaky
Год выхода: 2020
Жанр: ужасы, комедия, фэнтези

Режиссер: Кристофер Лэндон

В ролях: Винс Вон, Кэтрин Ньютон, Селеста О’Коннор, Миша Ошерович, Эмили Холдер, Николас Старгел, Келли Ламор Уилсон, Митчелл Хуг, Дэна Дрори, Кэти Финнеран

О фильме:
В среду 11-го опасный психопат по кличке Мясник, сбежавший из психбольницы для преступников, убил четырёх подростков. В руках у маньяка также оказался антикварный кинжал, с которым он следующим вечером нападает на затюканную старшеклассницу Милли, но девушке удаётся спастись. На следующий день, в пятницу 13-го, Милли просыпается на заброшенном складе в теле маньяка, а сам Мясник - в уютной девичьей спальне в теле невинной старшеклассницы. Разумеется, он с большим удовольствием пойдёт в школу, а Милли теперь предстоит выяснить, как вернуться в своё тело и при этом не попасться полиции.

Страна: США
Продолжительность: 01:42:04
Перевод: Профессиональный дублированный (iTunes)
Файл
Кодек: H.265
Качество: WEB-DL-HEVC 2160p
Видео: MPEG-H HEVC, HDR, 3840x2160 (16:9), 23.976 fps, 15.0 Mb/s, 10 Bit
Аудио 1: AC3, 48.0 kHz, 6 ch, 384 kb/s | RUS
Аудио 2: E-AC3, 48.0 kHz, 6 ch, 640 kb/s | ENG
Субтитры: Русские (Forced, 2 x full), английские
General
Unique ID : 232477727889860136413263566048095073916 (0xAEE594EDDEE697F2B2F79F0834E3767C)
Complete name : Freaky.2020.WEB-DL.2160p.HDR.Dub.mkv
Format : Matroska
Format version : Version 4
File size : 11.4 GiB
Duration : 1 h 42 min
Overall bit rate : 16.1 Mb/s
Encoded date : UTC 2021-01-07 21:15:00
Writing application : mkvmerge v8.3.0 ('Over the Horizon') 64bit
Writing library : libebml v1.3.1 + libmatroska v1.4.2

Video
ID : 1
Format : HEVC
Format/Info : High Efficiency Video Coding
Format profile : Main [email protected]@Main
Codec ID : V_MPEGH/ISO/HEVC
Duration : 1 h 42 min
Bit rate : 15.0 Mb/s
Width : 3 840 pixels
Height : 2 160 pixels
Display aspect ratio : 16:9
Frame rate mode : Constant
Frame rate : 23.976 (24000/1001) FPS
Color space : YUV
Chroma subsampling : 4:2:0 (Type 2)
Bit depth : 10 bits
Bits/(Pixel*Frame) : 0.076
Stream size : 10.7 GiB (94%)
Default : Yes
Forced : No
Color range : Limited
Color primaries : BT.2020
Transfer characteristics : PQ
Matrix coefficients : BT.2020 non-constant
Maximum Content Light Level : 1000 cd/m2
Maximum Frame-Average Light Level : 106 cd/m2

Audio #1
ID : 2
Format : AC-3
Format/Info : Audio Coding 3
Commercial name : Dolby Digital
Codec ID : A_AC3
Duration : 1 h 42 min
Bit rate mode : Constant
Bit rate : 384 kb/s
Channel(s) : 6 channels
Channel layout : L R C LFE Ls Rs
Sampling rate : 48.0 kHz
Frame rate : 31.250 FPS (1536 SPF)
Bit depth : 16 bits
Compression mode : Lossy
Stream size : 280 MiB (2%)
Title : DUB (iTunes)
Language : Russian
Service kind : Complete Main
Default : Yes
Forced : No

Audio #2
ID : 3
Format : E-AC-3
Format/Info : Enhanced AC-3
Commercial name : Dolby Digital Plus
Codec ID : A_EAC3
Duration : 1 h 42 min
Bit rate mode : Constant
Bit rate : 640 kb/s
Channel(s) : 6 channels
Channel layout : L R C LFE Ls Rs
Sampling rate : 48.0 kHz
Frame rate : 31.250 FPS (1536 SPF)
Compression mode : Lossy
Stream size : 467 MiB (4%)
Title : Original
Language : English
Service kind : Complete Main
Default : No
Forced : No

Text #1
ID : 4
Format : UTF-8
Codec ID : S_TEXT/UTF8
Codec ID/Info : UTF-8 Plain Text
Duration : 29 min 12 s
Bit rate : 1 b/s
Count of elements : 7
Stream size : 402 Bytes (0%)
Title : Forced
Language : Russian
Default : Yes
Forced : No

Text #2
ID : 5
Format : UTF-8
Codec ID : S_TEXT/UTF8
Codec ID/Info : UTF-8 Plain Text
Duration : 1 h 41 min
Bit rate : 75 b/s
Count of elements : 1182
Stream size : 56.1 KiB (0%)
Title : Full (1)
Language : Russian
Default : No
Forced : No

Text #3
ID : 6
Format : UTF-8
Codec ID : S_TEXT/UTF8
Codec ID/Info : UTF-8 Plain Text
Duration : 1 h 35 min
Bit rate : 89 b/s
Count of elements : 1282
Stream size : 62.1 KiB (0%)
Title : Full (2)
Language : Russian
Default : No
Forced : No

Text #4
ID : 7
Format : UTF-8
Codec ID : S_TEXT/UTF8
Codec ID/Info : UTF-8 Plain Text
Duration : 1 h 42 min
Bit rate : 63 b/s
Count of elements : 1822
Stream size : 47.3 KiB (0%)
Title : SDH
Language : English
Default : No
Forced : No


Download
Для скачивания .torrent файлов необходима регистрация
Сайт не распространяет и не хранит электронные версии произведений, а лишь предоставляет доступ к создаваемому пользователями каталогу ссылок на торрент-файлы, которые содержат только списки хеш-сумм

Страница 1 из 1

Ответить на тему

   Похожие торренты   Торрент