Регистрация ·  Логин: Пароль: Запомнить   · Забыли пароль?




Ответить на тему
Статистика раздачи
Размер: 1.32 ГБ | Зарегистрирован: 22 янв 2021, 04:21 | .torrent скачан: 0 раз(а), DHT: [ 10 ] раз(а)
Сидеров: [ 1  | 0 байт/сек ]   Личеров: [ 0  | 0 байт/сек ]   DHT: [ 1 / 0 ]
Автор Сообщение

Модератор

С нами: 2 года 4 месяца
Сообщения: 3361
Россия

Сообщение 22 янв 2021, 04:21 

[Цитировать]



Название: Ночной конвой
Оригинальное название: Police
Год выхода: 2020
Жанр: драма, криминал
Режиссер: Анн Фонтэн
В ролях: Омар Си, Виржини Эфира, Грегори Гадебуа, Пейман Моаади, Элиза Ласовски, Эмманюэль Барруйе, Анн-Паскаль Клермбур, Анна-Гаэль Журден, Сесиль Реббоа, Седрик Виейра

О фильме: Парижские полицейские Виржини, Эрик и Аристид вынуждены принять необычное задание — вернуть мигранта на границу. По дороге в аэропорт Виржини понимает, что по возвращении на родину их подопечному грозит смерть. Столкнувшись с этим испытанием совести, она пытается убедить коллег позволить ему сбежать...


Страна: Франция, Бельгия, Китай
Студия: F Comme Film, Ciné@, StudioCanal
Продолжительность: 01:38:24
Перевод: Профессиональный дублированный | iTunes

Формат: MKV
Качество: BDRip-AVC
Видео: MPEG-4 AVC, 720x300 (2.40:1), 24.000 fps, ~ 1543 kbps avg, 0.298 bit/pixel
Аудио : 48 kHz, AC3, 5.1, 384 Kbps | iTunes | RUS |

General
Unique ID : 204851910019530553148050676291630281452 (0x9A1D0AF2C9C4FD8AA48DEC46509832EC)
Complete name : G:Night.convoy.2020.BDRip.AVC.ExKinoRay.mkv
Format : Matroska
Format version : Version 2
File size : 1.32 GiB
Duration : 1 h 38 min
Overall bit rate : 1 927 kb/s
Movie name : Police 2020 from ExKinoRay
Encoded date : UTC 2021-01-07 17:08:13
Writing application : mkvmerge v5.6.0 ('Kenya Kane') built on May 27 2012 16:44:04
Writing library : libebml v1.2.3 + libmatroska v1.3.0

Video
ID : 1
Format : AVC
Format/Info : Advanced Video Codec
Format profile : [email protected]
Format settings, CABAC : Yes
Format settings, ReFrames : 12 frames
Codec ID : V_MPEG4/ISO/AVC
Duration : 1 h 38 min
Bit rate : 1 543 kb/s
Width : 720 pixels
Height : 300 pixels
Display aspect ratio : 2.40:1
Frame rate mode : Constant
Frame rate : 24.000 FPS
Color space : YUV
Chroma subsampling : 4:2:0
Bit depth : 8 bits
Scan type : Progressive
Bits/(Pixel*Frame) : 0.298
Stream size : 1.03 GiB (78%)
Title : Enigma
Writing library : x264 core 152 r2851 ba24899
Encoding settings : cabac=1 / ref=12 / deblock=1:-2:-2 / analyse=0x3:0x113 / me=umh / subme=10 / psy=1 / psy_rd=1.05:0.00 / mixed_ref=1 / me_range=32 / chroma_me=1 / trellis=2 / 8x8dct=1 / cqm=0 / deadzone=21,11 / fast_pskip=0 / chroma_qp_offset=-2 / threads=9 / lookahead_threads=2 / sliced_threads=0 / nr=0 / decimate=0 / interlaced=0 / bluray_compat=0 / constrained_intra=0 / bframes=10 / b_pyramid=2 / b_adapt=2 / b_bias=0 / direct=3 / weightb=1 / open_gop=0 / weightp=2 / keyint=240 / keyint_min=24 / scenecut=40 / intra_refresh=0 / rc=2pass / mbtree=0 / bitrate=1543 / ratetol=1.0 / qcomp=0.60 / qpmin=0 / qpmax=51 / qpstep=4 / cplxblur=20.0 / qblur=0.5 / ip_ratio=1.30 / pb_ratio=1.20 / aq=2:0.90
Default : Yes
Forced : No
Color range : Limited
Color primaries : BT.709
Transfer characteristics : BT.709
Matrix coefficients : BT.709

Audio
ID : 2
Format : AC-3
Format/Info : Audio Coding 3
Mode extension : CM (complete main)
Format settings, Endianness : Big
Codec ID : A_AC3
Duration : 1 h 38 min
Bit rate mode : Constant
Bit rate : 384 kb/s
Channel(s) : 6 channels
Channel positions : Front: L C R, Side: L R, LFE
Sampling rate : 48.0 kHz
Frame rate : 31.250 FPS (1536 spf)
Compression mode : Lossy
Stream size : 270 MiB (20%)
Title : iTunes
Language : Russian
Default : Yes
Forced : No

Menu
00:00:00.000 : en:00:00:00.000
00:07:30.500 : en:00:07:30.500
00:15:50.625 : en:00:15:50.625
00:25:31.583 : en:00:25:31.583
00:32:47.208 : en:00:32:47.208
00:39:58.667 : en:00:39:58.667
00:49:49.208 : en:00:49:49.208
00:56:10.000 : en:00:56:10.000
01:04:25.792 : en:01:04:25.792
01:13:06.417 : en:01:13:06.417
01:23:17.333 : en:01:23:17.333
01:35:16.458 : en:01:35:16.458



Релиз от:

Автор релиза:

Download
Для скачивания .torrent файлов необходима регистрация
Сайт не распространяет и не хранит электронные версии произведений, а лишь предоставляет доступ к создаваемому пользователями каталогу ссылок на торрент-файлы, которые содержат только списки хеш-сумм

Страница 1 из 1

Ответить на тему

   Похожие торренты   Торрент 




tracker_crontracker_cron