Регистрация ·  Логин: Пароль: Запомнить   · Забыли пароль?




Ответить на тему
Статистика раздачи
Размер: 5.28 ГБ | Зарегистрирован: 22 янв 2021, 04:21 | .torrent скачан: 0 раз(а), DHT: [ 0 ] раз(а)
Сидеров: [ 0  | 0 байт/сек ]   Личеров: [ 0  | 0 байт/сек ]   DHT: [ 0 / 0 ]
Автор Сообщение

Модератор

С нами: 2 года 4 месяца
Сообщения: 3361
Россия

Сообщение 22 янв 2021, 04:21 

[Цитировать]


Информация о фильме
Название: Брешь
Оригинальное название: Breach
Год выхода: 2020
Жанр: фантастика, боевик, ужасы
Режиссер: Джон Суитц
В ролях: Коуди Кирсли, Брюс Уиллис, Рэйчел Николс, Тимоти В. Мерфи, Кассандра Клементи, Каллэн Мулвей, Кори Лардж, Томас Джейн, Джонни Месснер, Йохан Урб

О фильме:
2242 год. Земля обречена. Среди 50 миллионов избранных, летящих к новой планете, — беременная дочь капитана корабля. Её парня Ноя нет в списках, поэтому ему приходится обманом проникнуть на борт и притворяться уборщиком. Пока большая часть пассажиров и команды находится в анабиозе, Ной в компании бывалого напарника Клэя занимается ежедневной рутиной и знакомится с коллегами. Но вскоре на борту обнаруживается агрессивная инопланетная форма жизни, которая угрожает самому существованию человечества.
ПРИСУТСТВУЕТ НЕНОРМАТИВНАЯ ЛЕКСИКА


Страна: Канада
Студия: 308 Ent, Almost Never Films Inc., Aloe Entertainment
Продолжительность: 01:32:32
Перевод: Любительский одноголосый, закадровый [feofanio]

Файл
Кодек: H.264
Качество: WEB-DL 1080p
Видео: AVC, 1920x800 (2.40:1), 23.976 fps ~ 7330 Kbps
Звук:
AC3, 48 KHz, 2 ch ~ 192 Kb/s (русский)
E-AC3, 48 KHz, 6 ch ~ 640 Kb/s (английский)
Субтитры: английские

Общее
Уникальный идентификатор : 242558991521860815696618063051044936568 (0xB67B2999F16179DB9C37F3679993DB78)
Полное имя : J:wotBreach.2020.AMZN.WEB-DL.1080p.mkv
Формат : Matroska
Версия формата : Version 4
Размер файла : 5,28 Гбайт
Продолжительность : 1 ч. 32 м.
Общий поток : 8 165 Кбит/сек
Дата кодирования : UTC 2021-01-07 17:19:28
Программа кодирования : mkvmerge v7.7.0 ('Six Voices') 32bit built on Feb 28 2015 23:23:00
Библиотека кодирования : libebml v1.3.1 + libmatroska v1.4.2

Видео
Идентификатор : 1
Формат : AVC
Формат/Информация : Advanced Video Codec
Профиль формата : [email protected]
Настройки формата : CABAC / 4 Ref Frames
Параметр CABAC формата : Да
Параметр RefFrames формата : 4 кадра
Идентификатор кодека : V_MPEG4/ISO/AVC
Продолжительность : 1 ч. 32 м.
Вид битрейта : Постоянный
Битрейт : 7 331 Кбит/сек
Номинальный битрейт : 10 000 Кбит/сек
Ширина : 1 920 пикселей
Высота : 800 пикселей
Соотношение сторон : 2,40:1
Режим частоты кадров : Постоянный
Частота кадров : 23,976 (24000/1001) кадра/сек
Цветовое пространство : YUV
Субдискретизация насыщенности : 4:2:0
Битовая глубина : 8 бит
Тип развёртки : Прогрессивная
Бит/(Пиксели*Кадры) : 0.199
Размер потока : 4,74 Гбайт (90%)
Язык : English
Default : Да
Forced : Нет
Цветовой диапазон : Limited
Основные цвета : BT.709
Характеристики трансфера : BT.709
Коэффициенты матрицы : BT.709

Аудио #1
Идентификатор : 2
Формат : AC-3
Формат/Информация : Audio Coding 3
Коммерческое название : Dolby Digital
Идентификатор кодека : A_AC3
Продолжительность : 1 ч. 32 м.
Вид битрейта : Постоянный
Битрейт : 192 Кбит/сек
Каналы : 2 канала
Channel layout : L R
Частота : 48,0 КГц
Частота кадров : 31,250 кадров/сек (1536 SPF)
Метод сжатия : С потерями
Размер потока : 127 Мбайт (2%)
Заголовок : VO - feofanio
Язык : Russian
Service kind : Complete Main
Default : Да
Forced : Нет

Аудио #2
Идентификатор : 3
Формат : E-AC-3
Формат/Информация : Enhanced AC-3
Коммерческое название : Dolby Digital Plus
Идентификатор кодека : A_EAC3
Продолжительность : 1 ч. 32 м.
Вид битрейта : Постоянный
Битрейт : 640 Кбит/сек
Каналы : 6 каналов
Channel layout : L R C LFE Ls Rs
Частота : 48,0 КГц
Частота кадров : 31,250 кадров/сек (1536 SPF)
Метод сжатия : С потерями
Размер потока : 424 Мбайт (8%)
Язык : English
Service kind : Complete Main
Default : Нет
Forced : Нет

Текст
Идентификатор : 4
Формат : UTF-8
Идентификатор кодека : S_TEXT/UTF8
Идентификатор кодека/Информация : UTF-8 Plain Text
Продолжительность : 1 ч. 28 м.
Битрейт : 52 бит/сек
Count of elements : 1369
Размер потока : 34,2 Кбайт (0%)
Заголовок : SDH
Язык : English
Default : Нет
Forced : Нет


СЕМПЛ


Download
Для скачивания .torrent файлов необходима регистрация
Сайт не распространяет и не хранит электронные версии произведений, а лишь предоставляет доступ к создаваемому пользователями каталогу ссылок на торрент-файлы, которые содержат только списки хеш-сумм

Страница 1 из 1

Ответить на тему

   Похожие торренты   Торрент 




tracker_crontracker_cron