Регистрация ·  Логин: Пароль: Запомнить   · Забыли пароль?




Ответить на тему
Статистика раздачи
Размер: 743.96 МБ | Зарегистрирован: 22 янв 2021, 04:21 | .torrent скачан: 0 раз(а), DHT: [ 0 ] раз(а)
Сидеров: [ 0  | 0 байт/сек ]   Личеров: [ 0  | 0 байт/сек ]   DHT: [ 0 / 0 ]
Автор Сообщение

Модератор

С нами: 2 года 4 месяца
Сообщения: 3361
Россия

Сообщение 22 янв 2021, 04:21 

[Цитировать]


Информация о фильме
Название: Ночной конвой
Оригинальное название: Police
Год выхода: 2020
Жанр: Драма, криминал

Режиссер: Анн Фонтен
В ролях: Омар Си, Виржини Эфира, Грегори Гадебуа, Пейман Моаади, Элиза Ласовски, Эмманюэль Барруйе, Энн-Паскаль Клэрембур, Анна-Гаэль Журден, Сесиль Реббоа, Седрик Виейра

О фильме: Парижские полицейские Виржини, Эрик и Аристид вынуждены принять необычное задание — вернуть мигранта на границу. По дороге в аэропорт Виржини понимает, что по возвращении на родину их подопечному грозит смерть. Столкнувшись с этим испытанием совести, она пытается убедить коллег позволить ему сбежать.



Страна: Франция, Бельгия, Китай
Студия: Bona Film Group, Canal+ [fr], Ciné, France Télévision, Studio Canal
Продолжительность: 01:38:25
Перевод: Дублированный | iTunes

Файл
Формат: MKV
Качество: BDRip-AVC
Исходник: Police.2020.BDREMUX.1080p.seleZen

Видео: 720x300 (2.40:1), 24 fps, x264 ~992 kbps avg, 0.191 bit/pixel
Аудио: 48 kHz, HE-AAC, 2 ch, ~64 kbps avg
Субтитры: Нет

Format : Matroska
Format version : Version 4
File size : 744 MiB
Duration : 1 h 38 min
Overall bit rate : 1 057 kb/s
Movie name : Ночной конвой / Police (2020) BDRip-AVC от OlLanDGroup#Skandar
Encoded date : UTC 2021-01-07 15:15:00
Writing application : mkvmerge v31.0.0 ('Dolores In A Shoestand') 64-bit
Writing library : libebml v1.3.6 + libmatroska v1.4.9
Cover : Yes
Attachments : cover.jpg

Video
ID : 1
Format : AVC
Format/Info : Advanced Video Codec
Format profile : [email protected]
Format settings : CABAC / 10 Ref Frames
Format settings, CABAC : Yes
Format settings, ReFrames : 10 frames
Codec ID : V_MPEG4/ISO/AVC
Duration : 1 h 38 min
Bit rate : 992 kb/s
Width : 720 pixels
Height : 300 pixels
Display aspect ratio : 2.40:1
Frame rate mode : Constant
Frame rate : 24.000 FPS
Color space : YUV
Chroma subsampling : 4:2:0
Bit depth : 8 bits
Scan type : Progressive
Bits/(Pixel*Frame) : 0.191
Stream size : 698 MiB (94%)
Title : Ночной конвой / Police (2020) BDRip-AVC от OlLanDGroup#Skandar
Writing library : x264 core 146 r2538 121396c
Encoding settings : cabac=1 / ref=10 / deblock=1:-3:-3 / analyse=0x3:0x133 / me=umh / subme=11 / psy=1 / psy_rd=0.95:0.05 / mixed_ref=1 / me_range=32 / chroma_me=1 / trellis=2 / 8x8dct=1 / cqm=0 / deadzone=21,11 / fast_pskip=0 / chroma_qp_offset=-3 / threads=6 / lookahead_threads=1 / sliced_threads=0 / nr=0 / decimate=0 / interlaced=0 / bluray_compat=0 / constrained_intra=0 / bframes=10 / b_pyramid=2 / b_adapt=2 / b_bias=0 / direct=3 / weightb=1 / open_gop=0 / weightp=2 / keyint=240 / keyint_min=24 / scenecut=40 / intra_refresh=0 / rc_lookahead=40 / rc=2pass / mbtree=1 / bitrate=992 / ratetol=1.0 / qcomp=0.60 / qpmin=0 / qpmax=69 / qpstep=4 / cplxblur=20.0 / qblur=0.5 / vbv_maxrate=50000 / vbv_bufsize=62500 / nal_hrd=none / filler=0 / ip_ratio=1.40 / aq=1:1.00
Default : Yes
Forced : No

Audio
ID : 2
Format : AAC LC SBR
Format/Info : Advanced Audio Codec Low Complexity with Spectral Band Replication
Commercial name : HE-AAC
Format settings : Explicit
Codec ID : A_AAC-2
Duration : 1 h 38 min
Bit rate : 64.0 kb/s
Channel(s) : 2 channels
Channel layout : L R
Sampling rate : 48.0 kHz
Frame rate : 23.438 FPS (2048 SPF)
Compression mode : Lossy
Delay relative to video : 31 ms
Stream size : 45.0 MiB (6%)
Title : Dub [iTunes]
Language : Russian
Default : Yes
Forced : No

Menu
00:00:00.000 : en:00:00:00.000
00:07:30.500 : en:00:07:30.500
00:15:50.625 : en:00:15:50.625
00:25:31.583 : en:00:25:31.583
00:32:47.208 : en:00:32:47.208
00:39:58.667 : en:00:39:58.667
00:49:49.208 : en:00:49:49.208
00:56:10.000 : en:00:56:10.000
01:04:25.792 : en:01:04:25.792
01:13:06.417 : en:01:13:06.417
01:23:17.333 : en:01:23:17.333
01:35:16.458 : en:01:35:16.458





Релиз от:

Download
Для скачивания .torrent файлов необходима регистрация
Сайт не распространяет и не хранит электронные версии произведений, а лишь предоставляет доступ к создаваемому пользователями каталогу ссылок на торрент-файлы, которые содержат только списки хеш-сумм

Страница 1 из 1

Ответить на тему

   Похожие торренты   Торрент 




tracker_crontracker_cron