Регистрация ·  Логин: Пароль: Запомнить   · Забыли пароль?




Ответить на тему
Статистика раздачи
Размер: 743.96 МБ | Зарегистрирован: 22 янв 2021, 04:20 | .torrent скачан: 0 раз(а), DHT: [ 633 ] раз(а)
Сидеров: [ 19  | 0 байт/сек ]   Личеров: [ 0  | 0 байт/сек ]   DHT: [ 19 / 0 ]
Автор Сообщение

Модератор

С нами: 2 года 4 месяца
Сообщения: 3361
Россия

Сообщение 22 янв 2021, 04:20 

[Цитировать]


Информация о фильме
Название: Дичь
Оригинальное название: Freaky
Год выхода: 2020
Жанр: Ужасы, комедия
Режиссер: Кристофер Лэндон
В ролях: Кэтрин Ньютон, Винс Вон, Алан Рак, Кэти Финнеран, Митчелл Хуг, Юрайа Шелтон, Миша Ошерович, Николас Старгел, Келли Ламор Уилсон, Дэна Дрори

О фильме:
В результате странного инцидента старшеклассница меняется телами с серийным убийцей. У неё есть меньше 24 часов, чтобы всё исправить, после чего ситуацию будет уже не обратить.


Страна: США
Студия: Blumhouse Productions, Divide/Conquer
Продолжительность: 01:42:04
Перевод: Профессиональный (полное дублирование) [iTunes]
Субтитры: Русские (Forced, 2 x full), английские

Файл
Формат: Matroska
Качество: WEB-DLRip-AVC
Видео: 768x320 at 23.976 fps, [email protected], ~956 kbps, 0.162 bpp
Аудио: AAC, 2 ch, ~64 kbps - | Русский | -
Формат субтитров: softsub (SRT)

***Релиз от: -=DoMiNo=-

x264 [info]: frame I:1591 Avg QP:17.09 size: 29120
x264 [info]: frame P:31580 Avg QP:18.60 size: 11516
x264 [info]: frame B:113672 Avg QP:20.27 size: 2802

General
Format : Matroska
Format version : Version 4
File size : 744 MiB
Duration : 1 h 42 min
Overall bit rate : 1 019 kb/s
Movie name : Дичь.(2020).WEB-DLRip-AVC.[-=DoMiNo=-]
Encoded date : UTC 2021-01-06 20:03:18
Writing application : mkvmerge v52.0.0 ('Secret For The Mad') 64-bit
Writing library : libebml v1.4.1 + libmatroska v1.6.2
Attachments : poster / poster

Video
ID : 1
Format : AVC
Format/Info : Advanced Video Codec
Format profile : [email protected]
Format settings : CABAC / 12 Ref Frames
Format settings, CABAC : Yes
Format settings, Reference : 12 frames
Codec ID : V_MPEG4/ISO/AVC
Duration : 1 h 42 min
Bit rate : 956 kb/s
Width : 768 pixels
Height : 320 pixels
Display aspect ratio : 2.40:1
Frame rate mode : Constant
Frame rate : 23.976 (24000/1001) FPS
Color space : YUV
Chroma subsampling : 4:2:0
Bit depth : 8 bits
Scan type : Progressive
Bits/(Pixel*Frame) : 0.162
Stream size : 696 MiB (94%)
Title : -=DoMiNo=-
Writing library : x264 core 161 r3027 4121277
Encoding settings : cabac=1 / ref=12 / deblock=1:-2:-1 / analyse=0x3:0x133 / me=umh / subme=10 / psy=1 / psy_rd=1.00:0.15 / mixed_ref=1 / me_range=32 / chroma_me=1 / trellis=2 / 8x8dct=1 / cqm=0 / deadzone=21,11 / fast_pskip=0 / chroma_qp_offset=-3 / threads=6 / lookahead_threads=1 / sliced_threads=0 / nr=0 / decimate=0 / interlaced=0 / bluray_compat=0 / constrained_intra=0 / bframes=10 / b_pyramid=2 / b_adapt=2 / b_bias=0 / direct=3 / weightb=1 / open_gop=0 / weightp=2 / keyint=250 / keyint_min=23 / scenecut=40 / intra_refresh=0 / rc_lookahead=60 / rc=2pass / mbtree=0 / bitrate=956 / ratetol=1.0 / qcomp=0.65 / qpmin=0 / qpmax=69 / qpstep=4 / cplxblur=20.0 / qblur=0.5 / vbv_maxrate=50000 / vbv_bufsize=62500 / nal_hrd=none / filler=0 / ip_ratio=1.40 / pb_ratio=1.30 / aq=2:1.00
Language : English
Default : Yes
Forced : No
Color range : Limited
Color primaries : BT.709
Transfer characteristics : BT.709
Matrix coefficients : BT.709

Audio
ID : 2
Format : AAC LC SBR
Format/Info : Advanced Audio Codec Low Complexity with Spectral Band Replication
Commercial name : HE-AAC
Format settings : Explicit
Codec ID : A_AAC-2
Duration : 1 h 42 min
Bit rate : 62.7 kb/s
Channel(s) : 2 channels
Channel layout : L R
Sampling rate : 48.0 kHz
Frame rate : 23.438 FPS (2048 SPF)
Compression mode : Lossy
Stream size : 45.8 MiB (6%)
Title : DUB_[iTunes]
Language : Russian
Default : Yes
Forced : Yes

Text #1
ID : 3
Format : UTF-8
Codec ID : S_TEXT/UTF8
Codec ID/Info : UTF-8 Plain Text
Duration : 29 min 12 s
Bit rate : 1 b/s
Count of elements : 7
Stream size : 402 Bytes (0%)
Title : Forced
Language : Russian
Default : Yes
Forced : No

Text #2
ID : 4
Format : UTF-8
Codec ID : S_TEXT/UTF8
Codec ID/Info : UTF-8 Plain Text
Duration : 1 h 41 min
Bit rate : 75 b/s
Count of elements : 1182
Stream size : 56.1 KiB (0%)
Title : 1
Language : Russian
Default : No
Forced : No

Text #3
ID : 5
Format : UTF-8
Codec ID : S_TEXT/UTF8
Codec ID/Info : UTF-8 Plain Text
Duration : 1 h 35 min
Bit rate : 89 b/s
Count of elements : 1282
Stream size : 62.1 KiB (0%)
Title : 2
Language : Russian
Default : No
Forced : No

Text #4
ID : 6
Format : UTF-8
Codec ID : S_TEXT/UTF8
Codec ID/Info : UTF-8 Plain Text
Duration : 1 h 42 min
Bit rate : 63 b/s
Count of elements : 1822
Stream size : 47.3 KiB (0%)
Language : English
Default : No
Forced : No

Menu
00:00:00.000 : :Глава 1
00:08:10.490 : :Глава 2
00:19:31.170 : :Глава 3
00:29:37.776 : :Глава 4
00:39:32.370 : :Глава 5
00:48:10.888 : :Глава 6
00:59:03.540 : :Глава 7
01:09:20.156 : :Глава 8
01:20:48.844 : :Глава 9
01:30:37.432 : :Глава 10
01:36:01.756 : :Глава 11

Download
Для скачивания .torrent файлов необходима регистрация
Сайт не распространяет и не хранит электронные версии произведений, а лишь предоставляет доступ к создаваемому пользователями каталогу ссылок на торрент-файлы, которые содержат только списки хеш-сумм

Страница 1 из 1

Ответить на тему

   Похожие торренты   Торрент 




tracker_crontracker_cron