Регистрация ·  Логин: Пароль: Запомнить   · Забыли пароль?




Ответить на тему
Статистика раздачи
Размер: 744.63 МБ | Зарегистрирован: 22 янв 2021, 04:19 | .torrent скачан: 0 раз(а), DHT: [ 1980 ] раз(а)
Сидеров: [ 115  | 0 байт/сек ]   Личеров: [ 2  | 0 байт/сек ]   DHT: [ 115 / 2 ]
Автор Сообщение

Модератор

С нами: 2 года 4 месяца
Сообщения: 3361
Россия

Сообщение 22 янв 2021, 04:19 

[Цитировать]

Информация о фильме
Название: Воздушный бой
Оригинальное название: Shadow in the Cloud
Год выхода: 2020
Жанр: ужасы, боевик, военный
Режиссер: Роузэнн Лианг
В ролях: Хлоя Грейс Морец, Ник Робинсон, Бела Коале, Тейлор Джон Смит, Каллэн Мулвей, Бенедикт Уолл, Байрон Колл, Джо Уитковски, Лиам Легг, Ашер Брайдл

О фильме:
В разгар Второй мировой войны бомбардировщик B-17 «Летающая крепость» сопровождает груз под грифом «секретно». Команду возглавила молодая женщина – капитан Мод Гарднер, что вызвало скепсис у суровых бойцов. Едва поднявшись в воздух, экипаж вступает в бой с японскими истребителями, а на борту вынужден отражать внезапное нападение зловещего существа. Капитан Мод должна совершить невозможное – убедить команду в своей состоятельности, справиться с монстром и при этом сохранить тайну загадочного груза.



Страна: Новая Зеландия, США
Студия: Four Knights Film, Rhea Films
Продолжительность: 01:23:23
Перевод: Профессиональный многоголосый, закадровый [HDrezka Studio]
Субтитры: Русские (forced), английские

Файл
Формат: Matroska
Качество: WEB-DLRip-AVC
Видео: 720x300 at 23.976 fps, [email protected]1, ~1168 kbps, 0.226 bpp
Аудио: AAC, 2 ch, ~78 kbps - | Русский | - MVO [Без мата]
Формат субтитров: softsub (SRT)

***Релиз от: -=DoMiNo=-

x264 [info]: frame I:783 Avg QP:13.18 size: 35817
x264 [info]: frame P:25077 Avg QP:16.33 size: 12570
x264 [info]: frame B:94101 Avg QP:18.44 size: 4112

General
Format : Matroska
Format version : Version 4
File size : 745 MiB
Duration : 1 h 23 min
Overall bit rate : 1 248 kb/s
Movie name : Воздушный бой.(2020).WEB-DLRip-AVC.[-=DoMiNo=-]
Encoded date : UTC 2021-01-06 11:09:03
Writing application : mkvmerge v52.0.0 ('Secret For The Mad') 64-bit
Writing library : libebml v1.4.1 + libmatroska v1.6.2
Cover : Yes
Attachments : Cover.jpg / Cover 2.jpg

Video
ID : 1
Format : AVC
Format/Info : Advanced Video Codec
Format profile : [email protected]
Format settings : CABAC / 11 Ref Frames
Format settings, CABAC : Yes
Format settings, Reference : 11 frames
Codec ID : V_MPEG4/ISO/AVC
Duration : 1 h 23 min
Bit rate : 1 168 kb/s
Width : 720 pixels
Height : 300 pixels
Display aspect ratio : 2.40:1
Frame rate mode : Constant
Frame rate : 23.976 (24000/1001) FPS
Color space : YUV
Chroma subsampling : 4:2:0
Bit depth : 8 bits
Scan type : Progressive
Bits/(Pixel*Frame) : 0.226
Stream size : 696 MiB (94%)
Title : -=DoMiNo=-
Writing library : x264 core 161 r3027 4121277
Encoding settings : cabac=1 / ref=11 / deblock=1:-2:-1 / analyse=0x3:0x133 / me=umh / subme=11 / psy=1 / psy_rd=1.05:0.15 / mixed_ref=1 / me_range=32 / chroma_me=1 / trellis=2 / 8x8dct=1 / cqm=0 / deadzone=21,11 / fast_pskip=0 / chroma_qp_offset=-3 / threads=6 / lookahead_threads=1 / sliced_threads=0 / nr=0 / decimate=0 / interlaced=0 / bluray_compat=0 / constrained_intra=0 / bframes=12 / b_pyramid=2 / b_adapt=2 / b_bias=0 / direct=3 / weightb=1 / open_gop=0 / weightp=2 / keyint=250 / keyint_min=23 / scenecut=40 / intra_refresh=0 / rc_lookahead=60 / rc=2pass / mbtree=0 / bitrate=1168 / ratetol=1.0 / qcomp=0.60 / qpmin=0 / qpmax=69 / qpstep=4 / cplxblur=20.0 / qblur=0.5 / vbv_maxrate=50000 / vbv_bufsize=62500 / nal_hrd=none / filler=0 / ip_ratio=1.40 / pb_ratio=1.30 / aq=2:1.00
Language : English
Default : Yes
Forced : No
Color range : Limited
Color primaries : BT.709
Transfer characteristics : BT.709
Matrix coefficients : BT.709

Audio
ID : 2
Format : AAC LC SBR
Format/Info : Advanced Audio Codec Low Complexity with Spectral Band Replication
Commercial name : HE-AAC
Format settings : Explicit
Codec ID : A_AAC-2
Duration : 1 h 23 min
Bit rate : 78.7 kb/s
Channel(s) : 2 channels
Channel layout : L R
Sampling rate : 48.0 kHz
Frame rate : 23.438 FPS (2048 SPF)
Compression mode : Lossy
Stream size : 46.9 MiB (6%)
Title : MVO_[HDR]
Language : Russian
Default : Yes
Forced : No

Text #1
ID : 3
Format : UTF-8
Codec ID : S_TEXT/UTF8
Codec ID/Info : UTF-8 Plain Text
Duration : 1 h 15 min
Bit rate : 0 b/s
Count of elements : 12
Stream size : 471 Bytes (0%)
Title : Forced
Language : Russian
Default : Yes
Forced : No

Text #2
ID : 4
Format : UTF-8
Codec ID : S_TEXT/UTF8
Codec ID/Info : UTF-8 Plain Text
Duration : 1 h 17 min
Bit rate : 91 b/s
Count of elements : 1688
Stream size : 51.8 KiB (0%)
Title : SDH
Language : English
Default : No
Forced : No

Menu
00:00:00.000 : :Глава 01
00:05:00.000 : :Глава 02
00:10:00.000 : :Глава 03
00:15:00.000 : :Глава 04
00:20:00.000 : :Глава 05
00:25:00.000 : :Глава 06
00:30:00.000 : :Глава 07
00:35:00.000 : :Глава 08
00:40:00.000 : :Глава 09
00:45:00.000 : :Глава 10
00:50:00.000 : :Глава 11
00:55:00.000 : :Глава 12
01:00:00.000 : :Глава 13
01:05:00.000 : :Глава 14
01:10:00.000 : :Глава 15
01:15:00.000 : :Глава 16
01:20:00.000 : :Глава 17

Download
Для скачивания .torrent файлов необходима регистрация
Сайт не распространяет и не хранит электронные версии произведений, а лишь предоставляет доступ к создаваемому пользователями каталогу ссылок на торрент-файлы, которые содержат только списки хеш-сумм

Страница 1 из 1

Ответить на тему

   Похожие торренты   Торрент 




tracker_crontracker_cron