Регистрация ·  Логин: Пароль: Запомнить   · Забыли пароль?




Ответить на тему
Статистика раздачи
Размер: 2.89 ГБ | Зарегистрирован: 22 янв 2021, 04:19 | .torrent скачан: 0 раз(а), DHT: [ 14878 ] раз(а)
Сидеров: [ 211  | 0 байт/сек ]   Личеров: [ 9  | 0 байт/сек ]   DHT: [ 211 / 9 ]
Автор Сообщение

Модератор

С нами: 2 года 4 месяца
Сообщения: 3361
Россия

Сообщение 22 янв 2021, 04:19 

[Цитировать]


Информация о фильме
Название: Воздушный бой
Оригинальное название: Shadow in the Cloud
Год выхода: 2020
Жанр: ужасы, боевик, военный
Режиссер: Роузэнн Лианг
В ролях: Хлоя Грейс Морец, Ник Робинсон, Бела Коале, Тейлор Джон Смит, Каллэн Мулвей, Бенедикт Уолл, Байрон Колл, Джо Уитковски, Лиам Легг, Ашер Брайдл

О фильме:
В разгар Второй мировой войны бомбардировщик B-17 «Летающая крепость» сопровождает груз под грифом «секретно». Команду возглавила молодая женщина – капитан Мод Гарднер, что вызвало скепсис у суровых бойцов. Едва поднявшись в воздух, экипаж вступает в бой с японскими истребителями, а на борту вынужден отражать внезапное нападение зловещего существа. Капитан Мод должна совершить невозможное – убедить команду в своей состоятельности, справиться с монстром и при этом сохранить тайну загадочного груза.
ПРИСУТСТВУЕТ НЕНОРМАТИВНАЯ ЛЕКСИКА - АУДИО 2



Страна: Новая Зеландия, США
Студия: Four Knights Film, Rhea Films
Продолжительность: 01:23:23
Перевод: Профессиональный многоголосый, закадровый [HDrezka Studio]

Файл
Кодек: H.264
Качество: WEB-DL 720p
Видео: AVC, 1248x520 (2.40:1), 23.976 fps ~ 3420 Кbps
Звук:
AC3, 48 KHz, 6 ch ~ 448 Kb/s (русский) - censored
AC3, 48 KHz, 6 ch ~ 448 Kb/s (русский) - uncensored
E-AC3, 48 KHz, 6 ch ~ 640 Kb/s (английский)
Субтитры: русские (forced), английские

Общее
Уникальный идентификатор : 246255807319562208068293506249239572992 (0xB94324B13FA7D2C9864CAA348FD83200)
Полное имя : J:wotShadow.in.the.Cloud.2020.720p.AMZN.mkv
Формат : Matroska
Версия формата : Version 4
Размер файла : 2,89 Гбайт
Продолжительность : 1 ч. 23 м.
Общий поток : 4 961 Кбит/сек
Дата кодирования : UTC 2021-01-06 03:02:28
Программа кодирования : mkvmerge v7.7.0 ('Six Voices') 32bit built on Feb 28 2015 23:23:00
Библиотека кодирования : libebml v1.3.1 + libmatroska v1.4.2

Видео
Идентификатор : 1
Формат : AVC
Формат/Информация : Advanced Video Codec
Профиль формата : [email protected]
Настройки формата : CABAC / 4 Ref Frames
Параметр CABAC формата : Да
Параметр RefFrames формата : 4 кадра
Идентификатор кодека : V_MPEG4/ISO/AVC
Продолжительность : 1 ч. 23 м.
Вид битрейта : Постоянный
Битрейт : 3 423 Кбит/сек
Номинальный битрейт : 6 000 Кбит/сек
Ширина : 1 248 пикселей
Высота : 520 пикселей
Соотношение сторон : 2,40:1
Режим частоты кадров : Постоянный
Частота кадров : 23,976 (24000/1001) кадра/сек
Цветовое пространство : YUV
Субдискретизация насыщенности : 4:2:0
Битовая глубина : 8 бит
Тип развёртки : Прогрессивная
Бит/(Пиксели*Кадры) : 0.220
Размер потока : 1,99 Гбайт (69%)
Язык : English
Default : Да
Forced : Нет
Цветовой диапазон : Limited
Основные цвета : BT.709
Характеристики трансфера : BT.709
Коэффициенты матрицы : BT.709

Аудио #1
Идентификатор : 2
Формат : AC-3
Формат/Информация : Audio Coding 3
Коммерческое название : Dolby Digital
Идентификатор кодека : A_AC3
Продолжительность : 1 ч. 23 м.
Вид битрейта : Постоянный
Битрейт : 448 Кбит/сек
Каналы : 6 каналов
Channel layout : L R C LFE Ls Rs
Частота : 48,0 КГц
Частота кадров : 31,250 кадров/сек (1536 SPF)
Метод сжатия : С потерями
Размер потока : 267 Мбайт (9%)
Заголовок : HDRezka Studio (cenzored)
Язык : Russian
Service kind : Complete Main
Default : Да
Forced : Нет

Аудио #2
Идентификатор : 3
Формат : AC-3
Формат/Информация : Audio Coding 3
Коммерческое название : Dolby Digital
Идентификатор кодека : A_AC3
Продолжительность : 1 ч. 23 м.
Вид битрейта : Постоянный
Битрейт : 448 Кбит/сек
Каналы : 6 каналов
Channel layout : L R C LFE Ls Rs
Частота : 48,0 КГц
Частота кадров : 31,250 кадров/сек (1536 SPF)
Метод сжатия : С потерями
Размер потока : 267 Мбайт (9%)
Заголовок : HDRezka Studio (uncenzored)
Язык : Russian
Service kind : Complete Main
Default : Нет
Forced : Нет

Аудио #3
Идентификатор : 4
Формат : E-AC-3
Формат/Информация : Enhanced AC-3
Коммерческое название : Dolby Digital Plus
Идентификатор кодека : A_EAC3
Продолжительность : 1 ч. 23 м.
Вид битрейта : Постоянный
Битрейт : 640 Кбит/сек
Каналы : 6 каналов
Channel layout : L R C LFE Ls Rs
Частота : 48,0 КГц
Частота кадров : 31,250 кадров/сек (1536 SPF)
Метод сжатия : С потерями
Размер потока : 382 Мбайт (13%)
Язык : English
Service kind : Complete Main
Default : Нет
Forced : Нет

Текст #1
Идентификатор : 5
Формат : UTF-8
Идентификатор кодека : S_TEXT/UTF8
Идентификатор кодека/Информация : UTF-8 Plain Text
Продолжительность : 1 ч. 15 м.
Битрейт : 0 бит/сек
Count of elements : 12
Размер потока : 471 байт (0%)
Заголовок : Forced
Язык : Russian
Default : Да
Forced : Нет

Текст #2
Идентификатор : 6
Формат : UTF-8
Идентификатор кодека : S_TEXT/UTF8
Идентификатор кодека/Информация : UTF-8 Plain Text
Продолжительность : 1 ч. 17 м.
Битрейт : 91 бит/сек
Count of elements : 1688
Размер потока : 51,8 Кбайт (0%)
Заголовок : SDH
Язык : English
Default : Нет
Forced : Нет



Download
Для скачивания .torrent файлов необходима регистрация
Сайт не распространяет и не хранит электронные версии произведений, а лишь предоставляет доступ к создаваемому пользователями каталогу ссылок на торрент-файлы, которые содержат только списки хеш-сумм

Страница 1 из 1

Ответить на тему

   Похожие торренты   Торрент 




tracker_crontracker_cron