Регистрация ·  Логин: Пароль: Запомнить   · Забыли пароль?




Ответить на тему
Статистика раздачи
Размер: 747.56 МБ | Зарегистрирован: 22 янв 2021, 04:17 | .torrent скачан: 0 раз(а), DHT: [ 6 ] раз(а)
Сидеров: [ 3  | 0 байт/сек ]   Личеров: [ 6  | 0 байт/сек ]   DHT: [ 3 / 6 ]
Автор Сообщение

Модератор

С нами: 2 года 4 месяца
Сообщения: 3361
Россия

Сообщение 22 янв 2021, 04:17 

[Цитировать]


Информация о фильме
Название: Чудо-женщина: 1984
Оригинальное название: Wonder Woman 1984
Год выхода: 2020
Жанр: Фэнтези, боевик, приключения
Режиссер: Патти Дженкинс
В ролях: Галь Гадот, Крис Пайн, Кристен Уиг, Педро Паскаль, Робин Райт, Конни Нильсен, Лилли Аспелл, Амр Вакед, Кристоффер Полаха, Наташа Ротуэлл

О фильме:
Влиятельный и успешный бизнесмен Лорд мечтает стать богом среди смертных. Для этого он не жалеет средств и собирает со всех уголков света разнообразные магические артефакты, пытаясь найти тот, который сможет подарить ему безграничную силу и могущество. В поисках ему помогает специалист по древней истории доктор Барбара Энн Минерва. Так в руки Минервы попадает некий артефакт, который превращает её в дикую, кровожадную и неуправляемую женщину-кошку — Гепарду. Вне себя от ярости она начинает охоту за Лордом, по чьей вине и превратилась в монстра.



Страна: США, Великобритания, Испания
Студия: Atlas Entertainment, DC Comics, DC Entertainment
Продолжительность: 02:31:06
Перевод: Профессиональный (многоголосый, закадровый) | HDrezka Studio

Файл
Формат: MP4
Качество: WEB-DLRip (исх. WEB-DL 1080p)
Видео: AVC, 640x338 (1.90:1), at 23.976 fps, 576 kbps
Аудио #1: AAC+, 48.0 KHz, 2 ch, 56 kbps | MVO (RUS)
Аудио #2: AAC+, 48.0 KHz, 2 ch, 56 kbps | MVO (UKR)
Субтитры: Русские (forced), Украинские (forced)

Семпл

General
Complete name : Wonder.Woman.1984.(2020).MVO.Rus.Ukr.WEB-DLRip.mp4
Format : MPEG-4
Format profile : Base Media
Codec ID : isom (isom/avc1)
File size : 748 MiB
Duration : 2 h 31 min
Overall bit rate mode : Variable
Overall bit rate : 692 kb/s
Encoded date : UTC 2021-01-20 20:35:08
Tagged date : UTC 2021-01-20 20:35:08
Writing application : Yamb 2.1.0.0 [http://yamb.unite-video.com]

Video
ID : 1
Format : AVC
Format/Info : Advanced Video Codec
Format profile : [email protected]
Format settings : CABAC / 14 Ref Frames
Format settings, CABAC : Yes
Format settings, Reference frames : 14 frames
Codec ID : avc1
Codec ID/Info : Advanced Video Coding
Duration : 2 h 31 min
Bit rate : 576 kb/s
Maximum bit rate : 2 745 kb/s
Width : 640 pixels
Height : 338 pixels
Display aspect ratio : 1.896
Original display aspect ratio : 1.897
Frame rate mode : Constant
Frame rate : 23.976 (24000/1001) FPS
Color space : YUV
Chroma subsampling : 4:2:0
Bit depth : 8 bits
Scan type : Progressive
Bits/(Pixel*Frame) : 0.111
Stream size : 622 MiB (83%)
Title : WW84
Writing library : x264 core 152 r2851 ba24899
Encoding settings : cabac=1 / ref=14 / deblock=1:-1:-1 / analyse=0x3:0x113 / me=umh / subme=10 / psy=1 / psy_rd=0.95:0.00 / mixed_ref=1 / me_range=32 / chroma_me=1 / trellis=2 / 8x8dct=1 / cqm=0 / deadzone=21,11 / fast_pskip=0 / chroma_qp_offset=-2 / threads=6 / lookahead_threads=1 / sliced_threads=0 / nr=100 / decimate=0 / interlaced=0 / bluray_compat=0 / constrained_intra=0 / bframes=12 / b_pyramid=2 / b_adapt=2 / b_bias=0 / direct=3 / weightb=1 / open_gop=0 / weightp=2 / keyint=240 / keyint_min=23 / scenecut=40 / intra_refresh=0 / rc=2pass / mbtree=0 / bitrate=576 / ratetol=1.0 / qcomp=0.75 / qpmin=0 / qpmax=69 / qpstep=4 / cplxblur=20.0 / qblur=0.5 / ip_ratio=1.20 / pb_ratio=1.30 / aq=1:1.00
Language : English
Encoded date : UTC 2021-01-20 20:35:08
Tagged date : UTC 2021-01-20 20:36:23
Color range : Limited
Color primaries : BT.709
Transfer characteristics : BT.709
Matrix coefficients : BT.709
Codec configuration box : avcC

Audio #1
ID : 2
Format : AAC LC SBR
Format/Info : Advanced Audio Codec Low Complexity with Spectral Band Replication
Commercial name : HE-AAC
Format settings : Explicit
Codec ID : mp4a-40-2
Duration : 2 h 31 min
Bit rate mode : Variable
Bit rate : 56.0 kb/s
Maximum bit rate : 63.0 kb/s
Channel(s) : 2 channels
Channel layout : L R
Sampling rate : 48.0 kHz
Frame rate : 23.438 FPS (2048 SPF)
Compression mode : Lossy
Stream size : 60.5 MiB (8%)
Title : MVO - HDrezka Studio
Language : Russian
Encoded date : UTC 2021-01-20 20:36:13
Tagged date : UTC 2021-01-20 20:36:23

Audio #2
ID : 3
Format : AAC LC SBR
Format/Info : Advanced Audio Codec Low Complexity with Spectral Band Replication
Commercial name : HE-AAC
Format settings : Explicit
Codec ID : mp4a-40-2
Duration : 2 h 31 min
Bit rate mode : Variable
Bit rate : 56.0 kb/s
Maximum bit rate : 142 kb/s
Channel(s) : 2 channels
Channel layout : L R
Sampling rate : 48.0 kHz
Frame rate : 23.438 FPS (2048 SPF)
Compression mode : Lossy
Stream size : 60.5 MiB (8%)
Title : MVO - HDrezka Studio
Language : Ukrainian
Encoded date : UTC 2021-01-20 20:36:19
Tagged date : UTC 2021-01-20 20:36:23

Text #1
ID : 4
Format : Timed Text
Codec ID : tx3g
Duration : 2 h 27 min
Bit rate mode : Variable
Bit rate : 2 b/s
Stream size : 2.06 KiB (0%)
Title : forced
Language : Russian
Forced : No
Encoded date : UTC 2021-01-20 20:36:23
Tagged date : UTC 2021-01-20 20:36:23

Text #2
ID : 5
Format : Timed Text
Codec ID : tx3g
Duration : 2 h 27 min
Bit rate mode : Variable
Bit rate : 2 b/s
Stream size : 1.78 KiB (0%)
Title : forced
Language : Ukrainian
Forced : No
Encoded date : UTC 2021-01-20 20:36:23
Tagged date : UTC 2021-01-20 20:36:23

Download
Для скачивания .torrent файлов необходима регистрация
Сайт не распространяет и не хранит электронные версии произведений, а лишь предоставляет доступ к создаваемому пользователями каталогу ссылок на торрент-файлы, которые содержат только списки хеш-сумм

Страница 1 из 1

Ответить на тему

   Похожие торренты   Торрент 




cron
tracker_crontracker_cron