Регистрация ·  Логин: Пароль: Запомнить   · Забыли пароль?




Ответить на тему
Статистика раздачи
Размер: 1.45 ГБ | Зарегистрирован: 22 янв 2021, 04:17 | .torrent скачан: 0 раз(а), DHT: [ 89 ] раз(а)
Сидеров: [ 56  | 0 байт/сек ]   Личеров: [ 395  | 0 байт/сек ]   DHT: [ 56 / 395 ]
Автор Сообщение

Модератор

С нами: 2 года 4 месяца
Сообщения: 3361
Россия

Сообщение 22 янв 2021, 04:17 

[Цитировать]


Информация о фильме
Название: Питер Пэн и Алиса в стране чудес
Оригинальное название: Come Away
Год выхода: 2020
Жанр: фэнтези, драма, приключения
Режиссер: Бренда Чепмен
В ролях: Анджелина Джоли, Майкл Кейн, Гугу Мбата-Роу, Дерек Джекоби, Дэвид Ойелоуо, Анна Чэнселлор, Кларк Питерс, Дэвид Гяси, Роджер Эштон-Гриффитс, Джордан А. Нэш, Дженни Гэлловэй

О фильме:
Удивительно, но прежде чем Алиса отправилась в Страну чудес, а Питер стал Пэном, они были братом и сестрой. Их легендарные приключения начались благодаря силе воображения, унаследованного от любящей матери и фантазера-отца. С какими бы испытаниями ни сталкивалась их семья, они никогда не забывали мечтать. Безумный Шляпник и Красная Королева, фея Динь-Динь и капитан Крюк – волшебство поджидает за каждым углом, нужно только уметь его видеть....



Выпущено: Великобритания, США
Студия: Endurance Media, Hammerstone Studios, Lakeview Entertainment
Продолжительность: 01:33:53
Озвучивание: Дублированный | iTunes
Субтитры: Russian, English

Файл
Формат: Matroska
Качество: BDRip-AVC
Видео: 1046x438 at 24.000 fps, x264, ~1828 kbps, 0.166 bpp
Аудио: AC3, 6 ch, ~384 kbps - | Русский | -
Формат субтитров: softsub (SRT)

***Релиз от: -=DoMiNo=-

x264 info: frame I:1204 Avg QP:14.64 size: 72343
x264 info: frame P:31422 Avg QP:18.37 size: 20367
x264 info: frame B:102576 Avg QP:19.61 size: 5454

General
Format : Matroska
Format version : Version 4
File size : 1.45 GiB
Duration : 1 h 33 min
Overall bit rate : 2 215 kb/s
Movie name : Питер Пэн и Алиса в стране чудес.(2020).BDRip-AVC.[-=DoMiNo=-]
Writing application : XviD4PSP 8.0.108
ErrorDetectionType : Per level 1
Attachments : poster / poster
Language : und

Video
ID : 1
Format : AVC
Format/Info : Advanced Video Codec
Format profile : [email protected]
Format settings : CABAC / 12 Ref Frames
Format settings, CABAC : Yes
Format settings, Reference : 12 frames
Codec ID : V_MPEG4/ISO/AVC
Duration : 1 h 33 min
Bit rate : 1 828 kb/s
Width : 1 046 pixels
Height : 438 pixels
Display aspect ratio : 2.40:1
Frame rate mode : Constant
Frame rate : 24.000 FPS
Color space : YUV
Chroma subsampling : 4:2:0
Bit depth : 8 bits
Scan type : Progressive
Bits/(Pixel*Frame) : 0.166
Stream size : 1.17 GiB (81%)
Title : -=DoMiNo=-
Writing library : x264 core 161 r3020 d198931
Encoding settings : cabac=1 / ref=12 / deblock=1:-2:-2 / analyse=0x3:0x133 / me=umh / subme=11 / psy=1 / psy_rd=1.00:0.15 / mixed_ref=1 / me_range=32 / chroma_me=1 / trellis=2 / 8x8dct=1 / cqm=0 / deadzone=21,11 / fast_pskip=0 / chroma_qp_offset=-3 / threads=6 / lookahead_threads=1 / sliced_threads=0 / nr=0 / decimate=0 / interlaced=0 / bluray_compat=0 / constrained_intra=0 / bframes=12 / b_pyramid=2 / b_adapt=2 / b_bias=0 / direct=3 / weightb=1 / open_gop=0 / weightp=2 / keyint=240 / keyint_min=24 / scenecut=40 / intra_refresh=0 / rc_lookahead=60 / rc=2pass / mbtree=0 / bitrate=1828 / ratetol=1.0 / qcomp=0.60 / qpmin=0 / qpmax=69 / qpstep=4 / cplxblur=20.0 / qblur=0.5 / vbv_maxrate=50000 / vbv_bufsize=62500 / nal_hrd=none / filler=0 / ip_ratio=1.40 / pb_ratio=1.30 / aq=3:0.80
Language : English
Default : Yes
Forced : No
Color range : Limited
Color primaries : BT.709
Transfer characteristics : BT.709
Matrix coefficients : BT.709

Audio
ID : 2
Format : AC-3
Format/Info : Audio Coding 3
Commercial name : Dolby Digital
Codec ID : A_AC3
Duration : 1 h 33 min
Bit rate mode : Constant
Bit rate : 384 kb/s
Channel(s) : 6 channels
Channel layout : L R C LFE Ls Rs
Sampling rate : 48.0 kHz
Frame rate : 31.250 FPS (1536 SPF)
Bit depth : 32 bits
Compression mode : Lossy
Stream size : 258 MiB (17%)
Title : Dub (iTunes)
Language : Russian
Service kind : Complete Main
Default : Yes
Forced : No

Text #1
ID : 3
Format : UTF-8
Codec ID : S_TEXT/UTF8
Codec ID/Info : UTF-8 Plain Text
Duration : 1 h 29 min
Title : Full
Language : Russian
Default : Yes
Forced : No

Text #2
ID : 4
Format : UTF-8
Codec ID : S_TEXT/UTF8
Codec ID/Info : UTF-8 Plain Text
Duration : 1 h 27 min
Title : English-SRT
Language : English
Default : No
Forced : No

Menu
00:00:00.000 : :Chapter 01
00:12:19.208 : :Chapter 02
00:23:21.416 : :Chapter 03
00:34:44.750 : :Chapter 04
00:46:40.666 : :Chapter 05
01:00:24.208 : :Chapter 06
01:13:51.416 : :Chapter 07
01:27:52.000 : :Chapter 08

Download
Для скачивания .torrent файлов необходима регистрация
Сайт не распространяет и не хранит электронные версии произведений, а лишь предоставляет доступ к создаваемому пользователями каталогу ссылок на торрент-файлы, которые содержат только списки хеш-сумм

Страница 1 из 1

Ответить на тему

   Похожие торренты   Торрент 




tracker_crontracker_cron