Регистрация ·  Логин: Пароль: Запомнить   · Забыли пароль?




Ответить на тему
Статистика раздачи
Размер: 3.29 ГБ | Зарегистрирован: 22 янв 2021, 04:17 | .torrent скачан: 0 раз(а), DHT: [ 554 ] раз(а)
Сидеров: [ 268  | 0 байт/сек ]   Личеров: [ 51  | 0 байт/сек ]   DHT: [ 268 / 51 ]
Автор Сообщение

Модератор

С нами: 2 года 4 месяца
Сообщения: 3361
Россия

Сообщение 22 янв 2021, 04:17 

[Цитировать]


Информация о фильме
Название: Гости на вилле
Оригинальное название: Villetta con ospiti
Год выхода: 2020
Жанр: Триллер
Режиссер: Ивано Де Маттео
В ролях: Марко Джаллини, Микела Ческон, Массимилиано Галло, Эрика Бланк, Кристина Флютур, Моника Биллиани, Иоан Тибериу Добрица, Бебо Сторти, Виничио Маркиони, Джованни Висентин



О фильме: На вилле небольшого городка на севере Италии живет состоятельная семья. В обществе они олицетворяют образец добродетели и семейных ценностей, но за закрытыми дверьми роскошной виллы проявляется вся их порочность. Когда к ним домой проникает незваный гость, смертельная угроза обнажает их темную сторону и приводит к непредсказуемым последствиям.

Страна: Италия
Студия: Rodeo Drive
Продолжительность: 01:28:44
Перевод: Профессиональный многоголосый | iTunes

Качество: WEB-DL 1080p
Видео: MPEG-4 AVC, 1920x806, 4533 Kbit/s, 24.000 fps
Аудио #01: 48 kHz, AC3, 5.1, 384 Kbps | iTunes | RUS |
Аудио #02: 48 kHz, AC3, 5.1, 384 Kbps | Оригинал | ITA |
Субтитры: Русские (Full)



General
Unique ID : 32204133279213033826304704454924504818 (0x183A4A5BB01EC7F947DBBA0535890EF2)
Complete name : D:VideoVilletta.con.ospiti.2020.WEB-DL.1080p.seleZen.mkv
Format : Matroska
Format version : Version 4
File size : 3.29 GiB
Duration : 1 h 28 min
Overall bit rate : 5 303 kb/s
Movie name : Villetta con ospiti 2020 from seleZen
Encoded date : UTC 2021-01-21 16:07:55
Writing application : mkvmerge v52.0.0 ('Secret For The Mad') 64-bit
Writing library : libebml v1.4.1 + libmatroska v1.6.2

Video
ID : 1
Format : AVC
Format/Info : Advanced Video Codec
Format profile : [email protected]
Format settings : CABAC / 5 Ref Frames
Format settings, CABAC : Yes
Format settings, Reference : 5 frames
Codec ID : V_MPEG4/ISO/AVC
Duration : 1 h 28 min
Bit rate : 4 533 kb/s
Width : 1 920 pixels
Height : 806 pixels
Display aspect ratio : 2.40:1
Frame rate mode : Constant
Frame rate : 24.000 FPS
Color space : YUV
Chroma subsampling : 4:2:0
Bit depth : 8 bits
Scan type : Progressive
Bits/(Pixel*Frame) : 0.122
Stream size : 2.81 GiB (85%)
Language : English
Default : Yes
Forced : No
Color range : Limited
Color primaries : BT.709
Transfer characteristics : BT.709
Matrix coefficients : BT.709

Audio #1
ID : 2
Format : AC-3
Format/Info : Audio Coding 3
Commercial name : Dolby Digital
Codec ID : A_AC3
Duration : 1 h 28 min
Bit rate mode : Constant
Bit rate : 384 kb/s
Channel(s) : 6 channels
Channel layout : L R C LFE Ls Rs
Sampling rate : 48.0 kHz
Frame rate : 31.250 FPS (1536 SPF)
Compression mode : Lossy
Stream size : 244 MiB (7%)
Title : iTunes
Language : Russian
Service kind : Complete Main
Default : Yes
Forced : Yes

Audio #2
ID : 3
Format : AC-3
Format/Info : Audio Coding 3
Commercial name : Dolby Digital
Codec ID : A_AC3
Duration : 1 h 28 min
Bit rate mode : Constant
Bit rate : 384 kb/s
Channel(s) : 6 channels
Channel layout : L R C LFE Ls Rs
Sampling rate : 48.0 kHz
Frame rate : 31.250 FPS (1536 SPF)
Compression mode : Lossy
Stream size : 244 MiB (7%)
Title : Original
Language : Italian
Service kind : Complete Main
Default : No
Forced : No

Text
ID : 4
Format : UTF-8
Codec ID : S_TEXT/UTF8
Codec ID/Info : UTF-8 Plain Text
Duration : 1 h 18 min
Bit rate : 86 b/s
Count of elements : 884
Stream size : 49.7 KiB (0%)
Title : Full
Language : Russian
Default : No
Forced : No

Menu
00:00:00.000 : en:Глава 1
00:08:29.375 : en:Глава 2
00:16:30.166 : en:Глава 3
00:25:15.207 : en:Глава 4
00:33:16.248 : en:Глава 5
00:38:33.289 : en:Глава 6
00:45:44.580 : en:Глава 7
00:51:45.163 : en:Глава 8
00:57:21.413 : en:Глава 9
01:05:07.038 : en:Глава 10
01:11:29.121 : en:Глава 11
01:20:04.787 : en:Глава 12


Релиз: Присоединяйся к:


Download
Для скачивания .torrent файлов необходима регистрация
Сайт не распространяет и не хранит электронные версии произведений, а лишь предоставляет доступ к создаваемому пользователями каталогу ссылок на торрент-файлы, которые содержат только списки хеш-сумм

Страница 1 из 1

Ответить на тему

   Похожие торренты   Торрент 




tracker_crontracker_cron