Регистрация ·  Логин: Пароль: Запомнить   · Забыли пароль?




Ответить на тему
Статистика раздачи
Размер: 3.27 ГБ | Зарегистрирован: 22 янв 2021, 04:17 | .torrent скачан: 0 раз(а), DHT: [ 169 ] раз(а)
Сидеров: [ 81  | 0 байт/сек ]   Личеров: [ 2  | 0 байт/сек ]   DHT: [ 81 / 2 ]
Автор Сообщение

Модератор

С нами: 2 года 4 месяца
Сообщения: 3361
Россия

Сообщение 22 янв 2021, 04:17 

[Цитировать]


Информация о фильме
Название: Пустой человек
Оригинальное название: The Empty Man
Год выхода: 2020
Жанр: Детектив, ужасы
Режиссер: Дэвид Прайор
В ролях: Джеймс Бэдж Дэйл, Стивен Рут, Джоэл Кортни, Марин Айрлэнд, Раснит Каур, Аарон Пул, Роберт Арамайо, Саманта Логан, Эван Йоникит, Адам Фергюсон, Роберт Коуттс, Роберт Ли Дэвис, Коннер Даудс, Джессика Маттен, Рон Кэнада


В 1995 году, путешествуя по горам Бутана, один из четырёх американских туристов провалился в странную пещеру и как будто впал в оцепенение. Судьба его товарищей была печальна. В 2018 году в штате Миссури бывший полицейский Джеймс Ласомбра, тяжело переживающий гибель жены и маленького сына, берётся разыскивать пропавшую старшеклассницу Аманду. Он выясняет, что недавно она в компании друзей исполнила на мосту ритуал, якобы призывающий Пустого человека. Никто в эту городскую легенду не верит, но вскоре Джеймс обнаруживает тела друзей Аманды под тем самым мостом, а сама девушка оказывается как-то связана с загадочной организацией.



Страна: США, ЮАР, Великобритания
Студия: Boom! Studios, Out of Africa Entertainment
Продолжительность: 02:16:53
Перевод: Любительский двухголосый Колобок (ненормативная лексика)

Файл
Кодек: H.264
Качество: WEB-DLRip 720p
Видео: 1280x720 (16:9), 2590 kbps, 23.976 fps
Звук: Русский (AC-3, 2ch, 192 kbps)
Английский (AC-3, 6ch, 640 kbps)
Субтитры: Английские



x264 [info]: frame I:1646 Avg QP:14.51 size:101391
x264 [info]: frame P:47640 Avg QP:15.87 size: 30567
x264 [info]: frame B:147648 Avg QP:18.27 size: 7016
x264 [info]: consecutive B-frames: 3.3% 2.8% 7.2% 34.0% 23.4% 25.4% 1.7% 0.5% 0.4% 0.3% 1.0%

General
Unique ID : 27229286052932586626290484842439901619 (0x147C2B73E86663E12AFCAC7E870C01B3)
Complete name : F:КИНОРУТОРПустой человек (2020).WEB-DLRip 720p.mkv
Format : Matroska
Format version : Version 4
File size : 3.27 GiB
Duration : 2 h 16 min
Overall bit rate : 3 424 kb/s
Movie name : Пустой человек / The Empty Man (2020) - #LORDKILL#
Encoded date : UTC 2021-01-21 14:40:49
Writing application : mkvmerge v32.0.0 ('Astral Progressions') 64-bit
Writing library : libebml v1.3.7 + libmatroska v1.5.0

Video
ID : 1
Format : AVC
Format/Info : Advanced Video Codec
Format profile : [email protected]
Format settings : CABAC / 9 Ref Frames
Format settings, CABAC : Yes
Format settings, Reference : 9 frames
Codec ID : V_MPEG4/ISO/AVC
Duration : 2 h 16 min
Bit rate : 2 590 kb/s
Width : 1 280 pixels
Height : 720 pixels
Display aspect ratio : 16:9
Frame rate mode : Constant
Frame rate : 23.976 (24000/1001) FPS
Color space : YUV
Chroma subsampling : 4:2:0
Bit depth : 8 bits
Scan type : Progressive
Bits/(Pixel*Frame) : 0.117
Stream size : 2.48 GiB (76%)
Writing library : x264 core 159 r2991 1771b55
Encoding settings : cabac=1 / ref=9 / deblock=1:-2:-2 / analyse=0x3:0x113 / me=umh / subme=10 / psy=1 / psy_rd=1.00:0.20 / mixed_ref=1 / me_range=32 / chroma_me=1 / trellis=2 / 8x8dct=1 / cqm=0 / deadzone=21,11 / fast_pskip=0 / chroma_qp_offset=-3 / threads=12 / lookahead_threads=3 / sliced_threads=0 / nr=0 / decimate=1 / interlaced=0 / bluray_compat=0 / constrained_intra=0 / bframes=10 / b_pyramid=2 / b_adapt=2 / b_bias=0 / direct=1 / weightb=1 / open_gop=0 / weightp=2 / keyint=240 / keyint_min=23 / scenecut=40 / intra_refresh=0 / rc=crf / mbtree=0 / crf=19.0 / qcomp=0.60 / qpmin=0 / qpmax=69 / qpstep=4 / ip_ratio=1.40 / pb_ratio=1.30 / aq=1:1.00
Default : Yes
Forced : No

Audio #1
ID : 2
Format : AC-3
Format/Info : Audio Coding 3
Commercial name : Dolby Digital
Codec ID : A_AC3
Duration : 2 h 16 min
Bit rate mode : Constant
Bit rate : 192 kb/s
Channel(s) : 2 channels
Channel layout : L R
Sampling rate : 48.0 kHz
Frame rate : 31.250 FPS (1536 SPF)
Compression mode : Lossy
Stream size : 188 MiB (6%)
Title : Колобок
Language : Russian
Service kind : Complete Main
Default : Yes
Forced : No

Audio #2
ID : 3
Format : AC-3
Format/Info : Audio Coding 3
Commercial name : Dolby Digital
Codec ID : A_AC3
Duration : 2 h 16 min
Bit rate mode : Constant
Bit rate : 640 kb/s
Channel(s) : 6 channels
Channel layout : L R C LFE Ls Rs
Sampling rate : 48.0 kHz
Frame rate : 31.250 FPS (1536 SPF)
Compression mode : Lossy
Stream size : 627 MiB (19%)
Language : English
Service kind : Complete Main
Default : No
Forced : No

Text
ID : 4
Format : UTF-8
Codec ID : S_TEXT/UTF8
Codec ID/Info : UTF-8 Plain Text
Duration : 2 h 8 min
Bit rate : 32 b/s
Count of elements : 1167
Stream size : 30.3 KiB (0%)
Language : English
Default : No
Forced : No


Download
Для скачивания .torrent файлов необходима регистрация
Сайт не распространяет и не хранит электронные версии произведений, а лишь предоставляет доступ к создаваемому пользователями каталогу ссылок на торрент-файлы, которые содержат только списки хеш-сумм

Страница 1 из 1

Ответить на тему

   Похожие торренты   Торрент 




tracker_crontracker_cron