Регистрация ·  Логин: Пароль: Запомнить   · Забыли пароль?




Ответить на тему
Статистика раздачи
Размер: 1.46 ГБ | Зарегистрирован: 22 янв 2021, 04:16 | .torrent скачан: 0 раз(а), DHT: [ 0 ] раз(а)
Сидеров: [ 0  | 0 байт/сек ]   Личеров: [ 0  | 0 байт/сек ]   DHT: [ 0 / 0 ]
Автор Сообщение

Модератор

С нами: 2 года 5 месяцев
Сообщения: 3401
Россия

Сообщение 22 янв 2021, 04:16 

[Цитировать]


Информация о фильме
Название: Юный детектив
Оригинальное название: The Kid Detective
Год выхода: 2020
Жанр: Драма, комедия, детектив
Режиссер: Ивэн Морган
В ролях: Адам Броди, Софи Нелисс, Сара Сазерленд, Джесси Ной Груман, Венди Крюсон, Джонатан Уитэйкер, Питер Макнил, Лиза Труонг, Софиа Уэбстер, Даллас Эдвардс

О фильме:
Эйбу, известному когда-то ребенку-детективу, теперь 32 года. В перерывах между похмельем и приступами жалости к себе он продолжает браться за примитивные загадки, пока однажды клиентка не просит его расследовать убийство ее парня.

Страна: Канада
Студия: Woods Entertainment, JoBro Productions & Film Finance
Продолжительность: 01:39:25
Перевод: Профессиональный многоголосый | Google Play

Файл
Кодек: AVC
Качество: WEB-DLRip-AVC / The.Kid.Detective.2020.WEB-DL.1080p.seleZen
Видео: AVC, 1024x432 (2,40:1), 23.976 fps, 1714 Кбит/сек (0.162 bit/pixel)
Звук: AC-3, 48,0 КГц, 6 ch, 384 Кбит/сек, CBR (Russian)

Format : Matroska
Format version : Version 4
File size : 1.46 GiB
Duration : 1 h 39 min
Overall bit rate : 2 098 kb/s
Encoded date : UTC 2021-01-20 06:28:34
Writing application : mkvmerge v43.0.0 ('The Quartermaster') 32-bit
Writing library : libebml v1.3.10 + libmatroska v1.5.2

Video
ID : 1
Format : AVC
Format/Info : Advanced Video Codec
Format profile : [email protected]
Format settings : CABAC / 12 Ref Frames
Format settings, CABAC : Yes
Format settings, Reference frames : 12 frames
Codec ID : V_MPEG4/ISO/AVC
Duration : 1 h 39 min
Bit rate : 1 714 kb/s
Width : 1 024 pixels
Height : 432 pixels
Display aspect ratio : 2.40:1
Frame rate mode : Constant
Frame rate : 23.976 (24000/1001) FPS
Color space : YUV
Chroma subsampling : 4:2:0
Bit depth : 8 bits
Scan type : Progressive
Bits/(Pixel*Frame) : 0.162
Stream size : 1.19 GiB (82%)
Writing library : x264 core 161 r3027+53 Encoded by....UHD [(8 & 10)[email protected] X86]
Encoding settings : cabac=1 / ref=12 / deblock=1:-2:-2 / analyse=0x3:0x133 / me=umh / subme=11 / psy=1 / fade_compensate=0.00 / psy_rd=1.05:0.00 / mixed_ref=1 / me_range=32 / chroma_me=1 / trellis=2 / 8x8dct=1 / cqm=0 / deadzone=21,11 / fast_pskip=0 / chroma_qp_offset=-2 / threads=3 / lookahead_threads=1 / sliced_threads=0 / nr=0 / decimate=0 / interlaced=0 / bluray_compat=0 / constrained_intra=0 / fgo=0 / bframes=10 / b_pyramid=2 / b_adapt=2 / b_bias=0 / direct=1 / weightb=1 / open_gop=0 / weightp=2 / keyint=230 / keyint_min=23 / scenecut=40 / intra_refresh=0 / rc_lookahead=60 / rc=2pass / mbtree=0 / bitrate=1714 / ratetol=1.0 / qcomp=0.70 / qpmin=0:0:0 / qpmax=69:69:69 / qpstep=4 / cplxblur=20.0 / qblur=0.5 / vbv_maxrate=62500 / vbv_bufsize=78125 / nal_hrd=none / filler=0 / ip_ratio=1.30 / pb_ratio=1.20 / aq=3:0.70 / aq-sensitivity=10.00 / aq-factor=1.00:1.00:1.00 / aq2=0 / aq3=0
Language : English
Default : Yes
Forced : No
Color range : Limited
Color primaries : BT.709
Transfer characteristics : BT.709
Matrix coefficients : BT.709

Audio
ID : 2
Format : AC-3
Format/Info : Audio Coding 3
Commercial name : Dolby Digital
Codec ID : A_AC3
Duration : 1 h 39 min
Bit rate mode : Constant
Bit rate : 384 kb/s
Channel(s) : 6 channels
Channel layout : L R C LFE Ls Rs
Sampling rate : 48.0 kHz
Frame rate : 31.250 FPS (1536 SPF)
Compression mode : Lossy
Stream size : 273 MiB (18%)
Title : Google Play
Language : Russian
Service kind : Complete Main
Default : Yes
Forced : No

Menu
00:00:00.000 : :Chapter 01
00:09:56.000 : :Chapter 02
00:19:29.000 : :Chapter 03
00:30:07.000 : :Chapter 04
00:40:49.000 : :Chapter 05
00:50:44.000 : :Chapter 06
00:59:05.000 : :Chapter 07
01:08:03.000 : :Chapter 08
01:17:58.000 : :Chapter 09
01:27:53.000 : :Chapter 10
01:34:49.000 : :Chapter 11



Релиз от: UHD


Download
Для скачивания .torrent файлов необходима регистрация
Сайт не распространяет и не хранит электронные версии произведений, а лишь предоставляет доступ к создаваемому пользователями каталогу ссылок на торрент-файлы, которые содержат только списки хеш-сумм

Страница 1 из 1

Ответить на тему

   Похожие торренты   Торрент