Регистрация ·  Логин: Пароль: Запомнить   · Забыли пароль?




Ответить на тему
Статистика раздачи
Размер: 744.86 МБ | Зарегистрирован: 22 янв 2021, 04:16 | .torrent скачан: 0 раз(а), DHT: [ 0 ] раз(а)
Сидеров: [ 0  | 0 байт/сек ]   Личеров: [ 0  | 0 байт/сек ]   DHT: [ 0 / 0 ]
Автор Сообщение

Модератор

С нами: 2 года 4 месяца
Сообщения: 3361
Россия

Сообщение 22 янв 2021, 04:16 

[Цитировать]


Информация о фильме
Название: Проклятие Лауры: Завещание
Оригинальное название: The Call
Год выхода: 2020
Жанр: Ужасы
Режиссер: Тимоти Вудворд мл.
В ролях: Лин Шэй, Тобин Белл, Честер Рашинг, Эрин Сандерс, Майк К. Мэннинг, Слоун Морган Сигел, Джудд Лорманд, Рэнди Дж. Гудвин, Бруклин Энн Миллер, Леа Контрерас

О фильме: Октябрь 1987 года. Крис, новенький в школе, знакомится с группой подростков, которые на протяжении нескольких лет достают пожилую женщину Эдит. Ребята уверены, что она - ведьма, и именно она виновата в исчезновении Лауры, младшей сестры их подруги. Но вскоре Эдит кончает с собой и, как выясняется, оставляет им 100 тысяч долларов, но с одним условием: деньги получит тот, кто позвонит ей на положенный в гроб телефон и продержится на линии одну минуту.



Страна: США
Студия: Appreciated Films, BondIt, Buffalo 8 Productions, Kalispel Tribal Holdings, Single Malt Productions
Продолжительность: 01:37:18
Перевод: Дублированное | iTunes

Файл
Формат: MKV
Качество: HDRip-AVC
Исходник: Proklyatie.Lauryi.Zaveschanie.2020.1080p.BluRay.ELEKTRI4KA.UNIONGANG

Видео: 720x302 (2.40:1), 23.976 fps, x264 ~1004 kbps avg, 0.193 bit/pixel
Аудио: 48 kHz, HE-AAC, 2 ch, ~64 kbps avg
Субтитры: Английские (Full, SDH)

Format : Matroska
Format version : Version 4
File size : 745 MiB
Duration : 1 h 37 min
Overall bit rate : 1 070 kb/s
Movie name : Проклятие Лауры: Завещание / Звонок из подземелья / The Call (2020) HDRip-AVC от OlLanDGroup#Skandar
Encoded date : UTC 2021-01-20 05:49:48
Writing application : mkvmerge v31.0.0 ('Dolores In A Shoestand') 64-bit
Writing library : libebml v1.3.6 + libmatroska v1.4.9

Video
ID : 1
Format : AVC
Format/Info : Advanced Video Codec
Format profile : [email protected]
Format settings : CABAC / 10 Ref Frames
Format settings, CABAC : Yes
Format settings, ReFrames : 10 frames
Codec ID : V_MPEG4/ISO/AVC
Duration : 1 h 37 min
Bit rate : 1 004 kb/s
Width : 720 pixels
Height : 302 pixels
Display aspect ratio : 2.40:1
Frame rate mode : Constant
Frame rate : 23.976 (24000/1001) FPS
Color space : YUV
Chroma subsampling : 4:2:0
Bit depth : 8 bits
Scan type : Progressive
Bits/(Pixel*Frame) : 0.193
Stream size : 699 MiB (94%)
Title : Проклятие Лауры: Завещание / Звонок из подземелья / The Call (2020) HDRip-AVC от OlLanDGroup#Skandar
Writing library : x264 core 146 r2538 121396c
Encoding settings : cabac=1 / ref=10 / deblock=1:-3:-3 / analyse=0x3:0x133 / me=umh / subme=11 / psy=1 / psy_rd=0.95:0.05 / mixed_ref=1 / me_range=32 / chroma_me=1 / trellis=2 / 8x8dct=1 / cqm=0 / deadzone=21,11 / fast_pskip=0 / chroma_qp_offset=-3 / threads=6 / lookahead_threads=1 / sliced_threads=0 / nr=0 / decimate=0 / interlaced=0 / bluray_compat=0 / constrained_intra=0 / bframes=10 / b_pyramid=2 / b_adapt=2 / b_bias=0 / direct=3 / weightb=1 / open_gop=0 / weightp=2 / keyint=240 / keyint_min=23 / scenecut=40 / intra_refresh=0 / rc_lookahead=40 / rc=2pass / mbtree=1 / bitrate=1004 / ratetol=1.0 / qcomp=0.60 / qpmin=0 / qpmax=69 / qpstep=4 / cplxblur=20.0 / qblur=0.5 / vbv_maxrate=50000 / vbv_bufsize=62500 / nal_hrd=none / filler=0 / ip_ratio=1.40 / aq=1:1.00
Default : Yes
Forced : No

Audio
ID : 2
Format : AAC LC SBR
Format/Info : Advanced Audio Codec Low Complexity with Spectral Band Replication
Commercial name : HE-AAC
Format settings : Explicit
Codec ID : A_AAC-2
Duration : 1 h 37 min
Bit rate : 64.0 kb/s
Channel(s) : 2 channels
Channel layout : L R
Sampling rate : 48.0 kHz
Frame rate : 23.438 FPS (2048 SPF)
Compression mode : Lossy
Delay relative to video : 31 ms
Stream size : 44.5 MiB (6%)
Title : Dub [iTunes]
Language : Russian
Default : Yes
Forced : No

Text #1
ID : 3
Format : UTF-8
Codec ID : S_TEXT/UTF8
Codec ID/Info : UTF-8 Plain Text
Duration : 1 h 29 min
Bit rate : 30 b/s
Count of elements : 886
Stream size : 20.0 KiB (0%)
Title : Full .srt
Language : English
Default : No
Forced : No

Text #2
ID : 4
Format : UTF-8
Codec ID : S_TEXT/UTF8
Codec ID/Info : UTF-8 Plain Text
Duration : 1 h 34 min
Bit rate : 32 b/s
Count of elements : 1021
Stream size : 22.2 KiB (0%)
Title : SDH .srt
Language : English
Default : No
Forced : No

Menu
00:00:00.000 : :Chapter 01
00:15:05.530 : :Chapter 02
00:27:19.596 : :Chapter 03
00:44:04.100 : :Chapter 04
01:03:38.565 : :Chapter 05
01:14:02.813 : :Chapter 06
01:17:26.016 : :Chapter 07
01:31:33.655 : :Chapter 08





Релиз от:

Download
Для скачивания .torrent файлов необходима регистрация
Сайт не распространяет и не хранит электронные версии произведений, а лишь предоставляет доступ к создаваемому пользователями каталогу ссылок на торрент-файлы, которые содержат только списки хеш-сумм

Страница 1 из 1

Ответить на тему

   Похожие торренты   Торрент 




tracker_crontracker_cron