Регистрация ·  Логин: Пароль: Запомнить   · Забыли пароль?




Ответить на тему
Статистика раздачи
Размер: 2.94 ГБ | Зарегистрирован: 22 янв 2021, 04:16 | .torrent скачан: 0 раз(а), DHT: [ 0 ] раз(а)
Сидеров: [ 0  | 0 байт/сек ]   Личеров: [ 0  | 0 байт/сек ]   DHT: [ 0 / 0 ]
Автор Сообщение

Модератор

С нами: 2 года 4 месяца
Сообщения: 3361
Россия

Сообщение 22 янв 2021, 04:16 

[Цитировать]


Информация о фильме
Название: Искусственный интеллект
Оригинальное название: Superintelligence
Год выхода: 2020
Жанр: фантастика, мелодрама, комедия
Режиссер: Бен Фэлкоун
В ролях: Мелисса Маккарти, Джеймс Корден, Бобби Каннавале, Брайан Тайри Генри, Сэм Ричардсон, Бен Фэлкоун, Майкл Бич, Рэйчел Тикотин, Джессика Ст. Клэр, Каран Сони

О фильме:
Искусственный интеллект выбрал женщину в качестве образца для наблюдений за человечеством. В зависимости от поведения героини высший компьютерный разум решит, оставлять несовершенных людишек в живых или стереть с лица Земли.



Страна: США
Студия: Creative Wealth Media Finance, New Line Cinema, On the Day, Warner Bros.
Продолжительность: 01:45:47
Перевод: Дублированный [Line]

Файл
Кодек: H.264
Качество: WEB-DL 720p
Видео: AVC, 1280x544 (2.35:1), 23. 976 fps ~ 3390 Kbps
Звук:
AC3, 48 kHz, 2 ch ~ 192 kb/s (русский)
AC3, 48 KHz, 6 ch ~ 384 kb/s (английский)
Субтитры: английские

Общее
Уникальный идентификатор : 211154007649724988396246931835015981050 (0x9EDAC859D9863519B6AA96CF720CE7FA)
Полное имя : J:wotsuperintelligence.2020.720p.-.naisu.mkv
Формат : Matroska
Версия формата : Version 4
Размер файла : 2,94 Гбайт
Продолжительность : 1 ч. 45 м.
Режим общего битрейта : Переменный
Общий поток : 3 973 Кбит/сек
Дата кодирования : UTC 2021-01-19 17:21:50
Программа кодирования : mkvmerge v7.7.0 ('Six Voices') 32bit built on Feb 28 2015 23:23:00
Библиотека кодирования : libebml v1.3.1 + libmatroska v1.4.2

Видео
Идентификатор : 1
Формат : AVC
Формат/Информация : Advanced Video Codec
Профиль формата : [email protected]
Настройки формата : CABAC / 4 Ref Frames
Параметр CABAC формата : Да
Параметр RefFrames формата : 4 кадра
Идентификатор кодека : V_MPEG4/ISO/AVC
Продолжительность : 1 ч. 45 м.
Вид битрейта : Переменный
Битрейт : 3 394 Кбит/сек
Максимальный битрейт : 5 100 Кбит/сек
Ширина : 1 280 пикселей
Высота : 544 пикселя
Соотношение сторон : 2,35:1
Режим частоты кадров : Постоянный
Частота кадров : 23,976 (24000/1001) кадра/сек
Цветовое пространство : YUV
Субдискретизация насыщенности : 4:2:0
Битовая глубина : 8 бит
Тип развёртки : Прогрессивная
Бит/(Пиксели*Кадры) : 0.203
Размер потока : 2,51 Гбайт (85%)
Язык : English
Default : Да
Forced : Нет
Цветовой диапазон : Limited
Основные цвета : BT.709
Характеристики трансфера : BT.709
Коэффициенты матрицы : BT.709

Аудио #1
Идентификатор : 2
Формат : AC-3
Формат/Информация : Audio Coding 3
Коммерческое название : Dolby Digital
Идентификатор кодека : A_AC3
Продолжительность : 1 ч. 45 м.
Вид битрейта : Постоянный
Битрейт : 192 Кбит/сек
Каналы : 2 канала
Channel layout : L R
Частота : 48,0 КГц
Частота кадров : 31,250 кадров/сек (1536 SPF)
Метод сжатия : С потерями
Размер потока : 145 Мбайт (5%)
Заголовок : DUB (Line)
Язык : Russian
Service kind : Complete Main
Default : Да
Forced : Нет

Аудио #2
Идентификатор : 3
Формат : AC-3
Формат/Информация : Audio Coding 3
Коммерческое название : Dolby Digital
Идентификатор кодека : A_AC3
Продолжительность : 1 ч. 45 м.
Вид битрейта : Постоянный
Битрейт : 384 Кбит/сек
Каналы : 6 каналов
Channel layout : L R C LFE Ls Rs
Частота : 48,0 КГц
Частота кадров : 31,250 кадров/сек (1536 SPF)
Метод сжатия : С потерями
Размер потока : 291 Мбайт (10%)
Язык : English
Service kind : Complete Main
Default : Нет
Forced : Нет

Текст
Идентификатор : 4
Формат : UTF-8
Идентификатор кодека : S_TEXT/UTF8
Идентификатор кодека/Информация : UTF-8 Plain Text
Продолжительность : 1 ч. 41 м.
Битрейт : 105 бит/сек
Count of elements : 4178
Размер потока : 78,1 Кбайт (0%)
Заголовок : English
Язык : English
Default : Нет
Forced : Нет



Download
Для скачивания .torrent файлов необходима регистрация
Сайт не распространяет и не хранит электронные версии произведений, а лишь предоставляет доступ к создаваемому пользователями каталогу ссылок на торрент-файлы, которые содержат только списки хеш-сумм

Страница 1 из 1

Ответить на тему

   Похожие торренты   Торрент 




tracker_crontracker_cron