Регистрация ·  Логин: Пароль: Запомнить   · Забыли пароль?




Ответить на тему
Статистика раздачи
Размер: 2.65 ГБ | Зарегистрирован: 22 янв 2021, 04:16 | .torrent скачан: 0 раз(а), DHT: [ 500 ] раз(а)
Сидеров: [ 80  | 0 байт/сек ]   Личеров: [ 3  | 0 байт/сек ]   DHT: [ 80 / 3 ]
Автор Сообщение

Модератор

С нами: 2 года 4 месяца
Сообщения: 3361
Россия

Сообщение 22 янв 2021, 04:16 

[Цитировать]


Информация о фильме
Название: Земля кочевников
Оригинальное название: Nomadland
Год выхода: 2020
Жанр: драма

Режиссер: Хлоя Чжао

В ролях: Фрэнсис МакДорманд, Дэвид Стрэтэйрн, Гэй ДеФорест, Патриша Грайр, Линда Мэй, Анджела Рэйс, Карл Р. Хьюз, Дуглас Дж. Соул, Райан Аквино, Тереза Бьюкэнэн, Кариэ Линн Макдермотт Уайлдер
О фильме:
60-летняя женщина Ферн остается без работы и без дома, когда во время экономического кризиса закрывается единственная фабрика в её небольшом городке. Единственный выход - погрузить свой небогатый скарб в фургон и стать одной из племени современных кочевников, путешествующих от штата к штату в поисках сезонного заработка.

Страна: США, Германия
Продолжительность: 01:47:15
Перевод: Любительский (многоголосый) | @[email protected]
Файл
Кодек: x.264
Качество: WEBRip 1080p
Видео: AVC, 1920x800 (2.40:1), 30.000 fps, 2 960 kb/s
Аудио 1: AC3, 48.0 kHz, 2 ch, 192 kb/s | MVO [@[email protected]] | RUS | Thx KinoPub
Аудио 2: AC3, 48.0 kHz, 2 ch, 384 kb/s | Оригинал | ENG
Субтитры: Русские (Full), английские (SDH)

Рекламы нет | Сэмпл | Трейлер

General
Unique ID : 214852723237380847012017813511436099915 (0xA1A3211BE036CFF1990295BB4569E14B)
Complete name : Nomadland.2020.WEBRip.1080p.mkv
Format : Matroska
Format version : Version 4
File size : 2.65 GiB
Duration : 1 h 47 min
Overall bit rate : 3 538 kb/s
Encoded date : UTC 2021-01-19 14:03:01
Writing application : mkvmerge v8.3.0 ('Over the Horizon') 64bit
Writing library : libebml v1.3.1 + libmatroska v1.4.2

Video
ID : 1
Format : AVC
Format/Info : Advanced Video Codec
Format profile : [email protected]
Format settings : CABAC / 4 Ref Frames
Format settings, CABAC : Yes
Format settings, ReFrames : 4 frames
Codec ID : V_MPEG4/ISO/AVC
Duration : 1 h 47 min
Bit rate : 2 960 kb/s
Width : 1 920 pixels
Height : 800 pixels
Display aspect ratio : 2.40:1
Frame rate mode : Constant
Frame rate : 30.000 FPS
Color space : YUV
Chroma subsampling : 4:2:0
Bit depth : 8 bits
Scan type : Progressive
Bits/(Pixel*Frame) : 0.064
Stream size : 2.22 GiB (84%)
Language : English
Default : Yes
Forced : No
Color range : Limited
Color primaries : BT.709
Transfer characteristics : BT.709
Matrix coefficients : BT.709

Audio #1
ID : 2
Format : AC-3
Format/Info : Audio Coding 3
Commercial name : Dolby Digital
Codec ID : A_AC3
Duration : 1 h 47 min
Bit rate mode : Constant
Bit rate : 192 kb/s
Channel(s) : 2 channels
Channel layout : L R
Sampling rate : 48.0 kHz
Frame rate : 31.250 FPS (1536 SPF)
Bit depth : 16 bits
Compression mode : Lossy
Stream size : 147 MiB (5%)
Title : MVO (MUZOBOZ)
Language : Russian
Service kind : Complete Main
Default : Yes
Forced : No

Audio #2
ID : 3
Format : AC-3
Format/Info : Audio Coding 3
Commercial name : Dolby Digital
Codec ID : A_AC3
Duration : 1 h 47 min
Bit rate mode : Constant
Bit rate : 384 kb/s
Channel(s) : 2 channels
Channel layout : L R
Sampling rate : 48.0 kHz
Frame rate : 31.250 FPS (1536 SPF)
Bit depth : 16 bits
Compression mode : Lossy
Stream size : 295 MiB (11%)
Language : English
Service kind : Complete Main
Default : No
Forced : No

Text #1
ID : 4
Format : UTF-8
Codec ID : S_TEXT/UTF8
Codec ID/Info : UTF-8 Plain Text
Duration : 1 h 38 min
Bit rate : 71 b/s
Count of elements : 1070
Stream size : 51.7 KiB (0%)
Title : Full
Language : Russian
Default : No
Forced : No

Text #2
ID : 5
Format : UTF-8
Codec ID : S_TEXT/UTF8
Codec ID/Info : UTF-8 Plain Text
Duration : 1 h 42 min
Bit rate : 47 b/s
Count of elements : 1100
Stream size : 35.7 KiB (0%)
Title : SDH
Language : English
Default : No
Forced : No

Download
Для скачивания .torrent файлов необходима регистрация
Сайт не распространяет и не хранит электронные версии произведений, а лишь предоставляет доступ к создаваемому пользователями каталогу ссылок на торрент-файлы, которые содержат только списки хеш-сумм

Страница 1 из 1

Ответить на тему

   Похожие торренты   Торрент 




tracker_crontracker_cron