Регистрация ·  Логин: Пароль: Запомнить   · Забыли пароль?




Ответить на тему
Статистика раздачи
Размер: 1.45 ГБ | Зарегистрирован: 22 янв 2021, 04:16 | .torrent скачан: 0 раз(а), DHT: [ 4 ] раз(а)
Сидеров: [ 11  | 0 байт/сек ]   Личеров: [ 0  | 0 байт/сек ]   DHT: [ 11 / 0 ]
Автор Сообщение

Модератор

С нами: 2 года 4 месяца
Сообщения: 3361
Россия

Сообщение 22 янв 2021, 04:16 

[Цитировать]

Встреча выпускников 2: Свадьба / Die Hochzeit

Информация о фильме:
Название: Встреча выпускников 2: Свадьба
Оригинальное название: Die Hochzeit
Год выхода: 2020
Жанр: Комедия
Режиссер: Тиль Швайгер
В ролях: Тиль Швайгер, Самуэль Финци, Милан Пешель, Лили Швайгер, Штефани Штаппенбек, Катарина Шюттлер, Жанетт Хайн, Йоханна Гастдорф, Ирена Риндье, Бьянка Наврат и др.
Описание: Продолжение авантюрной комедии "Встреча выпускников 1.0", где троим школьным друзьям предстоит новое приключение. Томас, Нильс и Андреас продолжают искать любовь в своей взрослой жизни. Теперь им предстоит побывать на похоронах лучшего друга и успеть на свадьбу Томаса.

Страна: Германия
Студия: Barefoot Films, Warner Bros. Film Productions Germany
Продолжительность: 01:59:19
Перевод: Дублированный - iTunes

Информация о файле:
Кодек: AVC
Формат: MKV
Качество: HDRip-AVC
Видео: MPEG-4 AVC, 1024x428, 23,976 fps, 1356 kbps
Аудио RU: AC3, 6 ch, 48 kHz, 384 kbps
Субтитры: Русские (форс., полные), немецкие (полные), английские (полные)
Навигация по главам: Да


General
Unique ID : 26370438800191028503904581967566690655 (0x13D6C303916224A4273223A19D05595F)
Complete name : D:uTorrentРипы_от_wolf1245_MediaBitDie Hochzeit.2020.1.45Gb.iTunes.HDRip-AVC_wolf1245_MediaBit.mkv
Format : Matroska
Format version : Version 4
File size : 1.45 GiB
Duration : 1 h 59 min
Overall bit rate : 1 742 kb/s
Movie name : Die Hochzeit.2020.1.45Gb.iTunes.HDRip-AVC_wolf1245_MediaBit
Encoded date : UTC 2021-01-18 18:17:47
Writing application : mkvmerge v52.0.0 ('Secret For The Mad') 64-bit
Writing library : libebml v1.4.1 + libmatroska v1.6.2
Video
ID : 1
Format : AVC
Format/Info : Advanced Video Codec
Format profile : [email protected]
Format settings : CABAC / 14 Ref Frames
Format settings, CABAC : Yes
Format settings, Reference frames : 14 frames
Codec ID : V_MPEG4/ISO/AVC
Duration : 1 h 59 min
Bit rate : 1 356 kb/s
Width : 1 024 pixels
Height : 428 pixels
Display aspect ratio : 2.40:1
Frame rate mode : Constant
Frame rate : 23.976 (24000/1001) FPS
Color space : YUV
Chroma subsampling : 4:2:0
Bit depth : 8 bits
Scan type : Progressive
Bits/(Pixel*Frame) : 0.129
Stream size : 1.13 GiB (78%)
Title : _wolf1245_MediaBit
Writing library : x264 core 157 r2958 57baac4
Encoding settings : cabac=1 / ref=14 / deblock=1:-3:-3 / analyse=0x3:0x133 / me=umh / subme=11 / psy=1 / psy_rd=1.05:0.15 / mixed_ref=1 / me_range=48 / chroma_me=1 / trellis=2 / 8x8dct=1 / cqm=0 / deadzone=21,11 / fast_pskip=0 / chroma_qp_offset=-3 / threads=10 / lookahead_threads=2 / sliced_threads=0 / nr=0 / decimate=0 / interlaced=0 / bluray_compat=0 / constrained_intra=0 / bframes=14 / b_pyramid=2 / b_adapt=2 / b_bias=0 / direct=3 / weightb=1 / open_gop=0 / weightp=2 / keyint=240 / keyint_min=24 / scenecut=40 / intra_refresh=0 / rc_lookahead=100 / rc=2pass / mbtree=0 / bitrate=1356 / ratetol=1.0 / qcomp=0.60 / qpmin=0 / qpmax=69 / qpstep=4 / cplxblur=20.0 / qblur=0.5 / vbv_maxrate=50000 / vbv_bufsize=62500 / nal_hrd=none / filler=0 / ip_ratio=1.40 / pb_ratio=1.30 / aq=1:1.00
Language : German
Default : Yes
Forced : No
Audio
ID : 2
Format : AC-3
Format/Info : Audio Coding 3
Commercial name : Dolby Digital
Codec ID : A_AC3
Duration : 1 h 59 min
Bit rate mode : Constant
Bit rate : 384 kb/s
Channel(s) : 6 channels
Channel layout : L R C LFE Ls Rs
Sampling rate : 48.0 kHz
Frame rate : 31.250 FPS (1536 SPF)
Compression mode : Lossy
Stream size : 328 MiB (22%)
Title : DUB | iTunes
Language : Russian
Service kind : Complete Main
Default : Yes
Forced : No
Text #1
ID : 3
Format : UTF-8
Codec ID : S_TEXT/UTF8
Codec ID/Info : UTF-8 Plain Text
Duration : 1 h 38 min
Bit rate : 0 b/s
Count of elements : 6
Stream size : 231 Bytes (0%)
Title : RUSForced
Language : Russian
Default : No
Forced : No
Text #2
ID : 4
Format : UTF-8
Codec ID : S_TEXT/UTF8
Codec ID/Info : UTF-8 Plain Text
Duration : 1 h 57 min
Bit rate : 107 b/s
Count of elements : 1838
Stream size : 92.2 KiB (0%)
Title : rusFull
Language : Russian
Default : No
Forced : No
Text #3
ID : 5
Format : UTF-8
Codec ID : S_TEXT/UTF8
Codec ID/Info : UTF-8 Plain Text
Duration : 1 h 58 min
Bit rate : 73 b/s
Count of elements : 1669
Stream size : 63.5 KiB (0%)
Title : GERFull
Language : German
Default : No
Forced : No
Text #4
ID : 6
Format : UTF-8
Codec ID : S_TEXT/UTF8
Codec ID/Info : UTF-8 Plain Text
Duration : 1 h 58 min
Bit rate : 61 b/s
Count of elements : 1588
Stream size : 52.9 KiB (0%)
Title : ENGFull
Language : English
Default : No
Forced : No
Menu
00:00:00.000 : :Chapter 1
00:12:18.696 : :Chapter 2
00:21:40.966 : :Chapter 3
00:28:46.266 : :Chapter 4
00:38:40.276 : :Chapter 5
00:51:44.726 : :Chapter 6
00:59:49.961 : :Chapter 7
01:11:01.465 : :Chapter 8
01:23:53.611 : :Chapter 9
01:35:26.554 : :Chapter 10
01:43:01.175 : :Chapter 11
01:48:42.265 : :Chapter 12

Релиз от: & &

Download
Для скачивания .torrent файлов необходима регистрация
Сайт не распространяет и не хранит электронные версии произведений, а лишь предоставляет доступ к создаваемому пользователями каталогу ссылок на торрент-файлы, которые содержат только списки хеш-сумм

Страница 1 из 1

Ответить на тему

   Похожие торренты   Торрент 




tracker_crontracker_cron