Регистрация ·  Логин: Пароль: Запомнить   · Забыли пароль?




Ответить на тему
Статистика раздачи
Размер: 26.17 ГБ | Зарегистрирован: 22 янв 2021, 04:15 | .torrent скачан: 0 раз(а), DHT: [ 0 ] раз(а)
Сидеров: [ 0  | 0 байт/сек ]   Личеров: [ 0  | 0 байт/сек ]   DHT: [ 0 / 0 ]
Автор Сообщение

Модератор

С нами: 2 года 4 месяца
Сообщения: 3361
Россия

Сообщение 22 янв 2021, 04:15 

[Цитировать]


Информация о фильме
Название: Давай поиграем
Оригинальное название: Come Play
Год выхода: 2020
Жанр: Ужасы
Режиссер: Джейкоб Чейз
В ролях: Эжи Робертсон, Гиллиан Джейкобс, Джон Галлахер мл., Уинслоу Фегли, Джейден Марин, Гэвин Макивер-Райт, Рэйчел Уилсон, Алана-Эшли Маркес, Далмар Абузейд, Ана Араужо, Эбони Бут, Кейт Фентон, Ишан Моррис

О фильме:
Аутист Оливер не особо любит проводить время с ровесниками, его лучшие друзья - планшет и телефон. У Ларри тоже нет настоящих друзей, и он очень хочет подружиться с Оливером. И всё бы ничего, но Ларри - злая потусторонняя сущность, которая жаждет пробраться в этот мир с помощью мобильных устройств.

Страна: США
Студия: Amblin Partners, Reliance Entertainment, The Picture Company
Продолжительность: 01:36:31
Перевод: Авторский (одноголосый, закадровый) (А.Дольский)

Файл
Кодек: AVC
Качество: BDRemux 1080p / Come.play.2020.BluRay.1080p.AVC.DTS-MA5.1-NoGroup
Видео: AVC, 1920x1080 (16:9), 23.976 fps, 35,4 Мбит/сек (0.711 bit/pixel)
Звук:
Аудио #1: AC-3, 48,0 КГц, 2 ch, 192 Кбит/сек, CBR (Russian)
Аудио #2: DTS-HD MA, 48,0 КГц, 6 ch, 3241 Кбит/сек, VBR (English)
Субтитры: English

Format : Matroska
Format version : Version 4
File size : 26.2 GiB
Duration : 1 h 36 min
Overall bit rate mode : Variable
Overall bit rate : 38.8 Mb/s
Encoded date : UTC 2021-01-17 22:30:38
Writing application : mkvmerge v43.0.0 ('The Quartermaster') 32-bit
Writing library : libebml v1.3.10 + libmatroska v1.5.2

Video
ID : 1
Format : AVC
Format/Info : Advanced Video Codec
Format profile : [email protected]
Format settings : CABAC / 4 Ref Frames
Format settings, CABAC : Yes
Format settings, Reference frames : 4 frames
Codec ID : V_MPEG4/ISO/AVC
Duration : 1 h 36 min
Bit rate mode : Variable
Bit rate : 35.4 Mb/s
Maximum bit rate : 38.0 Mb/s
Width : 1 920 pixels
Height : 1 080 pixels
Display aspect ratio : 16:9
Frame rate mode : Constant
Frame rate : 23.976 (24000/1001) FPS
Color space : YUV
Chroma subsampling : 4:2:0
Bit depth : 8 bits
Scan type : Progressive
Bits/(Pixel*Frame) : 0.711
Stream size : 23.8 GiB (91%)
Title : Come Play for UHD
Default : No
Forced : No

Audio #1
ID : 2
Format : AC-3
Format/Info : Audio Coding 3
Commercial name : Dolby Digital
Codec ID : A_AC3
Duration : 1 h 36 min
Bit rate mode : Constant
Bit rate : 192 kb/s
Channel(s) : 2 channels
Channel layout : L R
Sampling rate : 48.0 kHz
Frame rate : 31.250 FPS (1536 SPF)
Compression mode : Lossy
Stream size : 133 MiB (0%)
Title : А.Дольский
Language : Russian
Service kind : Complete Main
Default : Yes
Forced : Yes

Audio #2
ID : 3
Format : DTS XLL
Format/Info : Digital Theater Systems
Commercial name : DTS-HD Master Audio
Codec ID : A_DTS
Duration : 1 h 36 min
Bit rate mode : Variable
Bit rate : 3 241 kb/s
Channel(s) : 6 channels
Channel layout : C L R Ls Rs LFE
Sampling rate : 48.0 kHz
Frame rate : 93.750 FPS (512 SPF)
Bit depth : 24 bits
Compression mode : Lossless
Stream size : 2.18 GiB (8%)
Language : English
Default : No
Forced : No

Text
ID : 4
Format : UTF-8
Codec ID : S_TEXT/UTF8
Codec ID/Info : UTF-8 Plain Text
Duration : 1 h 31 min
Bit rate : 37 b/s
Count of elements : 978
Stream size : 25.2 KiB (0%)
Language : English
Default : No
Forced : No

Menu
00:00:00.000 : :Глава 01
00:03:50.856 : :Глава 02
00:09:51.007 : :Глава 03
00:15:32.223 : :Глава 04
00:18:03.165 : :Глава 05
00:23:24.403 : :Глава 06
00:28:58.028 : :Глава 07
00:37:23.241 : :Глава 08
00:43:15.843 : :Глава 09
00:48:22.942 : :Глава 10
00:50:11.217 : :Глава 11
00:56:25.507 : :Глава 12
00:58:37.764 : :Глава 13
01:02:21.029 : :Глава 14
01:07:30.171 : :Глава 15
01:12:48.739 : :Глава 16
01:20:33.495 : :Глава 17
01:27:21.445 : :Глава 18
01:29:42.419 : :Глава 19
01:32:22.203 : :Глава 20



Релиз от: UHD

Download
Для скачивания .torrent файлов необходима регистрация
Сайт не распространяет и не хранит электронные версии произведений, а лишь предоставляет доступ к создаваемому пользователями каталогу ссылок на торрент-файлы, которые содержат только списки хеш-сумм

Страница 1 из 1

Ответить на тему

   Похожие торренты   Торрент 




tracker_crontracker_cron