Регистрация ·  Логин: Пароль: Запомнить   · Забыли пароль?




Ответить на тему
Статистика раздачи
Размер: 5.56 ГБ | Зарегистрирован: 22 янв 2021, 04:15 | .torrent скачан: 0 раз(а), DHT: [ 0 ] раз(а)
Сидеров: [ 0  | 0 байт/сек ]   Личеров: [ 0  | 0 байт/сек ]   DHT: [ 0 / 0 ]
Автор Сообщение

Модератор

С нами: 2 года 4 месяца
Сообщения: 3361
Россия

Сообщение 22 янв 2021, 04:15 

[Цитировать]

Информация о фильме
Название: Чудо-женщина: 1984
Оригинальное название: Wonder Woman 1984
Год выхода: 2020
Жанр: Фэнтези, боевик, приключения
Режиссер: Патти Дженкинс
В ролях: Галь Гадот, Крис Пайн, Кристен Уиг, Педро Паскаль, Робин Райт, Конни Нильсен, Лилли Аспелл, Амр Вакед, Кристоффер Полаха, Наташа Ротуэлл

О фильме: Влиятельный и успешный бизнесмен Лорд мечтает стать богом среди смертных. Для этого он не жалеет средств и собирает со всех уголков света разнообразные магические артефакты, пытаясь найти тот, который сможет подарить ему безграничную силу и могущество. В поисках ему помогает специалист по древней истории доктор Барбара Энн Минерва. Так в руки Минервы попадает некий артефакт, который превращает её в дикую, кровожадную и неуправляемую женщину-кошку — Гепарду. Вне себя от ярости она начинает охоту за Лордом, по чьей вине и превратилась в монстра.



Выпущено: США, Великобритания, Испания / Atlas Entertainment, DC Comics, DC Entertainment
Продолжительность: 02:31:05
Озвучивание #1: Дублированное | Мосфильм-Мастер
Озвучивание #2: Дублированное [Украинский язык]

Файл
Формат: MKV
Качество: WEB-DL 720p | IMAX Edition | AMAZON Version
Видео: MPEG-4 AVC, 4000 Kb/s, [email protected]
Аудио #1: Russian: 48 kHz, AC3 Dolby Digital, 3/2 (L, C, R, l, r) + LFE ch, ~384 Kbps | DUB | Мосфильм-Мастер
Аудио #2: Ukrainian: 48 kHz, AC3 Dolby Digital, 2/0 (L, R) ch, ~192 Kbps | DUB
Аудио #3: English: 48 kHz, Enhanced AC3 Dolby Digital, 3/2 (L, C, R, l, r) + LFE ch, ~768 Kbps | Original
Субтитры: Russian (Forced, Full), English
Дополнительно: Нет

*** За звук от Мосфильм-Мастер спасибо Dalemake!

Релиз группы &

Complete name: Wonder.Woman.1984.2020.720p.AMZN.WEB-DL.ELEKTRI4KA.UNIONGANG.mkv
Format: Matroska
Format version: Version 4 / Version 2
File size: 5.56 GiB
Duration: 2 h 31 min
Overall bit rate: 5 264 kb/s
Movie name: Wonder.Woman.1984.2020.720p.AMZN.WEB-DL.ELEKTRI4KA.UNIONGANG.
Encoded date: UTC 2021-01-17 18:59:04
Writing application: mkvmerge v8.3.0 ('Over the Horizon') 64bit
Writing library: libebml v1.3.1 + libmatroska v1.4.2

Video
ID: 1
Format: AVC
Format/Info: Advanced Video Codec
Format profile: [email protected]
Format settings, CABAC: Yes
Format settings, Reference frames: 4 frames
Codec ID: V_MPEG4/ISO/AVC
Duration: 2 h 31 min
Bit rate mode: Constant
Bit rate: 4 000 kb/s
Width: 1 280 pixels
Height: 688 pixels
Display aspect ratio: 1.890
Original display aspect ratio: 1.85:1
Frame rate mode: Constant
Frame rate: 23.976 (24000/1001) FPS
Color space: YUV
Chroma subsampling: 4:2:0
Bit depth: 8 bits
Scan type: Progressive
Bits/(Pixel*Frame): 0.189
Stream size: 4.13 GiB (74%)
Language: English
Default: Yes
Forced: No
Color range: Limited
Color primaries: BT.709
Transfer characteristics: BT.709
Matrix coefficients: BT.709

Audio #1
ID: 2
Format: AC-3
Format/Info: Audio Coding 3
Mode extension: CM (complete main)
Format settings, Endianness: Big
Codec ID: A_AC3
Duration: 2 h 31 min
Bit rate mode: Constant
Bit rate: 384 kb/s
Channel(s): 6 channels
Channel positions: Front: L C R, Side: L R, LFE
Sampling rate: 48.0 kHz
Frame rate: 31.250 FPS (1536 spf)
Bit depth: 16 bits
Compression mode: Lossy
Stream size: 415 MiB (7%)
Title: Dub (Mosfilm-Master)
Language: Russian
Default: Yes
Forced: Yes

Audio #2
ID: 3
Format: AC-3
Format/Info: Audio Coding 3
Mode extension: CM (complete main)
Format settings, Endianness: Big
Codec ID: A_AC3
Duration: 2 h 31 min
Bit rate mode: Constant
Bit rate: 192 kb/s
Channel(s): 2 channels
Channel positions: Front: L R
Sampling rate: 48.0 kHz
Frame rate: 31.250 FPS (1536 spf)
Bit depth: 16 bits
Compression mode: Lossy
Stream size: 207 MiB (4%)
Title: Dub
Language: Ukrainian
Default: No
Forced: No

Audio #3
ID: 4
Format: E-AC-3
Format/Info: Enhanced Audio Coding 3
Format settings, Endianness: Big
Codec ID: A_EAC3
Duration: 2 h 31 min
Bit rate mode: Constant
Bit rate: 768 kb/s
Channel(s): 6 channels
Channel positions: Front: L C R, Side: L R, LFE
Sampling rate: 48.0 kHz
Frame rate: 187.500 FPS (256 spf)
Compression mode: Lossy
Delay relative to video: 24 ms
Stream size: 830 MiB (15%)
Title: Original
Language: English
Default: No
Forced: No

Text #1
ID: 5
Format: UTF-8
Codec ID: S_TEXT/UTF8
Codec ID/Info: UTF-8 Plain Text
Duration: 2 h 15 min
Bit rate: 1 b/s
Count of elements: 42
Stream size: 1.91 KiB (0%)
Title: Forced
Language: Russian
Default: Yes
Forced: No

Text #2
ID: 6
Format: UTF-8
Codec ID: S_TEXT/UTF8
Codec ID/Info: UTF-8 Plain Text
Duration: 2 h 26 min
Bit rate: 79 b/s
Count of elements: 1841
Stream size: 85.4 KiB (0%)
Title: FOCS
Language: Russian
Default: No
Forced: No

Text #3
ID: 7
Format: UTF-8
Codec ID: S_TEXT/UTF8
Codec ID/Info: UTF-8 Plain Text
Duration: 2 h 26 min
Bit rate: 46 b/s
Count of elements: 1862
Stream size: 50.2 KiB (0%)
Language: English
Default: No
Forced: No

Text #4
ID: 8
Format: UTF-8
Codec ID: S_TEXT/UTF8
Codec ID/Info: UTF-8 Plain Text
Duration: 2 h 26 min
Bit rate: 55 b/s
Count of elements: 2175
Stream size: 59.6 KiB (0%)
Title: SDH
Language: English
Default: No
Forced: No

Download
Для скачивания .torrent файлов необходима регистрация
Сайт не распространяет и не хранит электронные версии произведений, а лишь предоставляет доступ к создаваемому пользователями каталогу ссылок на торрент-файлы, которые содержат только списки хеш-сумм

Страница 1 из 1

Ответить на тему

   Похожие торренты   Торрент 




tracker_crontracker_cron