Регистрация ·  Логин: Пароль: Запомнить   · Забыли пароль?




Ответить на тему
Статистика раздачи
Размер: 745.47 МБ | Зарегистрирован: 22 янв 2021, 04:14 | .torrent скачан: 0 раз(а), DHT: [ 0 ] раз(а)
Сидеров: [ 0  | 0 байт/сек ]   Личеров: [ 0  | 0 байт/сек ]   DHT: [ 0 / 0 ]
Автор Сообщение

Модератор

С нами: 2 года 5 месяцев
Сообщения: 3401
Россия

Сообщение 22 янв 2021, 04:14 

[Цитировать]


Информация о фильме
Название: Пираты по соседству
Оригинальное название: De piraten van hiernaast
Год выхода: 2020
Жанр: Семейный, приключения

Режиссер: Пим ван Хёве
В ролях: Матти Стукер, Самуэль Бо Ройрекас, Селеста Хольшеймер, Эгберт Ян Вебер, Тиго Гернандт, Сара Янне, Дэвид Люсиер, Нинке Бекхойзен, Берт Хана, Сицке ван дер Стер

О фильме: В скучном городке Линдсборо всё меняется, когда туда приплывает семейство пиратов.



Страна: Нидерланды
Студия: EO, Johan Nijenhuis & Co
Продолжительность: 01:34:14
Перевод: Профессиональный многоголосый | iTunes

Файл
Формат: MKV
Качество: WEB-DLRip-AVC
Видео: 720x314 (2.25:1), 24 fps, x264 ~1040 kbps avg, 0.192 bit/pixel
Аудио: 48 kHz, HE-AAC, 2 ch, ~64 kbps avg
Субтитры: Отсутствуют

FFormat : Matroska
Format version : Version 4
File size : 745 MiB
Duration : 1 h 34 min
Overall bit rate : 1 106 kb/s
Movie name : Пираты по соседству / De piraten van hiernaast (2020) WEB-DLRip-AVC от OlLanDGroup#Skandar
Encoded date : UTC 2021-01-17 16:13:29
Writing application : mkvmerge v31.0.0 ('Dolores In A Shoestand') 64-bit
Writing library : libebml v1.3.6 + libmatroska v1.4.9

Video
ID : 1
Format : AVC
Format/Info : Advanced Video Codec
Format profile : [email protected]
Format settings : CABAC / 10 Ref Frames
Format settings, CABAC : Yes
Format settings, ReFrames : 10 frames
Codec ID : V_MPEG4/ISO/AVC
Duration : 1 h 34 min
Bit rate : 1 040 kb/s
Width : 720 pixels
Height : 314 pixels
Display aspect ratio : 2.25:1
Frame rate mode : Constant
Frame rate : 24.000 FPS
Color space : YUV
Chroma subsampling : 4:2:0
Bit depth : 8 bits
Scan type : Progressive
Bits/(Pixel*Frame) : 0.192
Stream size : 701 MiB (94%)
Title : Пираты по соседству / De piraten van hiernaast (2020) WEB-DLRip-AVC от OlLanDGroup#Skandar
Writing library : x264 core 146 r2538 121396c
Encoding settings : cabac=1 / ref=10 / deblock=1:-3:-3 / analyse=0x3:0x133 / me=umh / subme=11 / psy=1 / psy_rd=0.95:0.05 / mixed_ref=1 / me_range=32 / chroma_me=1 / trellis=2 / 8x8dct=1 / cqm=0 / deadzone=21,11 / fast_pskip=0 / chroma_qp_offset=-3 / threads=6 / lookahead_threads=1 / sliced_threads=0 / nr=0 / decimate=0 / interlaced=0 / bluray_compat=0 / constrained_intra=0 / bframes=10 / b_pyramid=2 / b_adapt=2 / b_bias=0 / direct=3 / weightb=1 / open_gop=0 / weightp=2 / keyint=240 / keyint_min=24 / scenecut=40 / intra_refresh=0 / rc_lookahead=40 / rc=2pass / mbtree=1 / bitrate=1040 / ratetol=1.0 / qcomp=0.60 / qpmin=0 / qpmax=69 / qpstep=4 / cplxblur=20.0 / qblur=0.5 / vbv_maxrate=50000 / vbv_bufsize=62500 / nal_hrd=none / filler=0 / ip_ratio=1.40 / aq=1:1.00
Default : Yes
Forced : No

Audio
ID : 2
Format : AAC LC SBR
Format/Info : Advanced Audio Codec Low Complexity with Spectral Band Replication
Commercial name : HE-AAC
Format settings : Explicit
Codec ID : A_AAC-2
Duration : 1 h 34 min
Bit rate : 64.0 kb/s
Channel(s) : 2 channels
Channel layout : L R
Sampling rate : 48.0 kHz
Frame rate : 23.438 FPS (2048 SPF)
Compression mode : Lossy
Delay relative to video : 31 ms
Stream size : 43.1 MiB (6%)
Title : MVO | iTunes
Language : Russian
Default : Yes
Forced : No

Menu
00:00:00.000 : en:Глава 1
00:08:00.833 : en:Глава 2
00:16:23.208 : en:Глава 3
00:24:34.416 : en:Глава 4
00:33:41.249 : en:Глава 5
00:41:51.499 : en:Глава 6
00:50:12.832 : en:Глава 7
00:58:23.832 : en:Глава 8
01:07:16.498 : en:Глава 9
01:15:13.623 : en:Глава 10
01:23:37.914 : en:Глава 11




Релиз от:


Download
Для скачивания .torrent файлов необходима регистрация
Сайт не распространяет и не хранит электронные версии произведений, а лишь предоставляет доступ к создаваемому пользователями каталогу ссылок на торрент-файлы, которые содержат только списки хеш-сумм

Страница 1 из 1

Ответить на тему

   Похожие торренты   Торрент