Регистрация ·  Логин: Пароль: Запомнить   · Забыли пароль?




Ответить на тему
Статистика раздачи
Размер: 6.52 ГБ | Зарегистрирован: 22 янв 2021, 04:14 | .torrent скачан: 0 раз(а), DHT: [ 3691 ] раз(а)
Сидеров: [ 132  | 0 байт/сек ]   Личеров: [ 1  | 0 байт/сек ]   DHT: [ 132 / 1 ]
Автор Сообщение

Модератор

С нами: 2 года 5 месяцев
Сообщения: 3401
Россия

Сообщение 22 янв 2021, 04:14 

[Цитировать]


Информация о фильме
Название: Искусственный интеллект
Оригинальное название: Superintelligence
Год выхода: 2020
Жанр: фантастика, мелодрама, комедия
Режиссер: Бен Фэлкоун
В ролях: Мелисса Маккарти, Джеймс Корден, Бобби Каннавале, Брайан Тайри Генри, Сэм Ричардсон, Бен Фэлкоун, Майкл Бич, Рэйчел Тикотин, Джессика Ст. Клэр, Каран Сони
О фильме:
Искусственный интеллект выбрал женщину в качестве образца для наблюдений за человечеством. В зависимости от поведения героини высший компьютерный разум решит, оставлять несовершенных людишек в живых или стереть с лица Земли.

Страна: США
Продолжительность: 01:45:47
Перевод: Профессиональный дублированный (Line)
Файл
Кодек: x.264
Качество: WEBRip 1080p
Видео: AVC, 1920x816 (2.35:1), 23.976 fps, 8 243 kb/s
Аудио 1: AC3, 48.0 kHz, 2 ch, 192 kb/s | [DUB - Line] RUS | Thx Sound Master
Аудио 2: AC3 48.0 kHz, 6 ch, 384 kb/s | [Оригинал] ENG
Субтитры: английские

Сэмпл | Трейлер

Без рекламы

General
Unique ID : 237974415550717951267891476065103500201 (0xB308348DEEB7A132B652092FC0EDD3A9)
Complete name : Superintelligence.2020.WEBRip.1080p.Line.mkv
Format : Matroska
Format version : Version 4
File size : 6.52 GiB
Duration : 1 h 45 min
Overall bit rate mode : Variable
Overall bit rate : 8 822 kb/s
Encoded date : UTC 2021-01-17 12:12:32
Writing application : mkvmerge v8.3.0 ('Over the Horizon') 64bit
Writing library : libebml v1.3.1 + libmatroska v1.4.2

Video
ID : 1
Format : AVC
Format/Info : Advanced Video Codec
Format profile : [email protected]
Format settings : CABAC / 4 Ref Frames
Format settings, CABAC : Yes
Format settings, ReFrames : 4 frames
Codec ID : V_MPEG4/ISO/AVC
Duration : 1 h 45 min
Bit rate mode : Variable
Bit rate : 8 243 kb/s
Maximum bit rate : 12.4 Mb/s
Width : 1 920 pixels
Height : 816 pixels
Display aspect ratio : 2.35:1
Frame rate mode : Constant
Frame rate : 23.976 (24000/1001) FPS
Color space : YUV
Chroma subsampling : 4:2:0
Bit depth : 8 bits
Scan type : Progressive
Bits/(Pixel*Frame) : 0.219
Stream size : 6.09 GiB (93%)
Default : Yes
Forced : No
Color range : Limited
Color primaries : BT.709
Transfer characteristics : BT.709
Matrix coefficients : BT.709

Audio #1
ID : 2
Format : AC-3
Format/Info : Audio Coding 3
Commercial name : Dolby Digital
Codec ID : A_AC3
Duration : 1 h 45 min
Bit rate mode : Constant
Bit rate : 192 kb/s
Channel(s) : 2 channels
Channel layout : L R
Sampling rate : 48.0 kHz
Frame rate : 31.250 FPS (1536 SPF)
Bit depth : 16 bits
Compression mode : Lossy
Stream size : 145 MiB (2%)
Title : DUB (Line)
Language : Russian
Service kind : Complete Main
Default : Yes
Forced : No

Audio #2
ID : 3
Format : AC-3
Format/Info : Audio Coding 3
Commercial name : Dolby Digital
Codec ID : A_AC3
Duration : 1 h 45 min
Bit rate mode : Constant
Bit rate : 384 kb/s
Channel(s) : 6 channels
Channel layout : L R C LFE Ls Rs
Sampling rate : 48.0 kHz
Frame rate : 31.250 FPS (1536 SPF)
Bit depth : 16 bits
Compression mode : Lossy
Stream size : 291 MiB (4%)
Language : English
Service kind : Complete Main
Default : No
Forced : No

Text
ID : 4
Format : UTF-8
Codec ID : S_TEXT/UTF8
Codec ID/Info : UTF-8 Plain Text
Duration : 1 h 41 min
Bit rate : 105 b/s
Count of elements : 4178
Stream size : 78.1 KiB (0%)
Language : English
Default : No
Forced : No


Download
Для скачивания .torrent файлов необходима регистрация
Сайт не распространяет и не хранит электронные версии произведений, а лишь предоставляет доступ к создаваемому пользователями каталогу ссылок на торрент-файлы, которые содержат только списки хеш-сумм

Страница 1 из 1

Ответить на тему

   Похожие торренты   Торрент