Регистрация ·  Логин: Пароль: Запомнить   · Забыли пароль?




Ответить на тему
Статистика раздачи
Размер: 1.45 ГБ | Зарегистрирован: 22 янв 2021, 04:14 | .torrent скачан: 0 раз(а), DHT: [ 64 ] раз(а)
Сидеров: [ 10  | 0 байт/сек ]   Личеров: [ 0  | 0 байт/сек ]   DHT: [ 10 / 0 ]
Автор Сообщение

Модератор

С нами: 2 года 4 месяца
Сообщения: 3361
Россия

Сообщение 22 янв 2021, 04:14 

[Цитировать]

Пираты по соседству / De piraten van hiernaast

Информация о фильме:
Название: Пираты по соседству
Оригинальное название: De piraten van hiernaast
Год выхода: 2020
Жанр: Семейный, приключения
Режиссер: Пим ван Хёве
В ролях: Матти Стукер, Самуэль Бо Ройрекас, Селеста Хольшеймер, Эгберт Ян Вебер, Тиго Гернандт, Сара Янне, Дэвид Люсиер, Нинке Бекхойзен, Берт Хана, Сицке ван дер Стер
Описание: Самый тихий городок на свете потрясен известием о прибытии пиратов. А точнее – одной шумной пиратской семьи, решившей здесь поселиться. Смогут ли «морские разбойники» ужиться с новыми соседями?

Страна: Нидерланды
Студия: EO, Johan Nijenhuis & Co
Продолжительность: 01:34:14
Перевод: Профессиональный (полное дублирование) - iTunes

Информация о файле:
Кодек: AVC
Формат: MKV
Качество: WEB-DLRip-AVC
Видео: MPEG-4 AVC, 1024x446, 24.000 fps, 1820 kbps
Аудио RU: AC3, 5.1, 384 Kbps
Субтитры: Нет
Навигация по главам: Да


General
Unique ID : 84439452670463907978980097494913693525 (0x3F8672711EACB951C12A4A08317CB755)
Complete name : D:uTorrentРипы_от_wolf1245_MediaBitDe.piraten.van.hiernaast.2020.WEB-DLRip-AVC_wolf1245_MediaBit.mkv
Format : Matroska
Format version : Version 4
File size : 1.45 GiB
Duration : 1 h 34 min
Overall bit rate : 2 206 kb/s
Movie name : De.piraten.van.hiernaast.2020.WEB-DLRip-AVC_wolf1245_MediaBit
Encoded date : UTC 2021-01-17 10:57:45
Writing application : mkvmerge v52.0.0 ('Secret For The Mad') 64-bit
Writing library : libebml v1.4.1 + libmatroska v1.6.2
Video
ID : 1
Format : AVC
Format/Info : Advanced Video Codec
Format profile : [email protected]
Format settings : CABAC / 12 Ref Frames
Format settings, CABAC : Yes
Format settings, Reference frames : 12 frames
Codec ID : V_MPEG4/ISO/AVC
Duration : 1 h 34 min
Bit rate : 1 820 kb/s
Width : 1 024 pixels
Height : 446 pixels
Display aspect ratio : 2.25:1
Frame rate mode : Constant
Frame rate : 24.000 FPS
Color space : YUV
Chroma subsampling : 4:2:0
Bit depth : 8 bits
Scan type : Progressive
Bits/(Pixel*Frame) : 0.166
Stream size : 1.20 GiB (83%)
Title : wolf1245_MediaBit
Writing library : x264 core 157 r2958 57baac4
Encoding settings : cabac=1 / ref=12 / deblock=1:-3:-3 / analyse=0x3:0x133 / me=umh / subme=11 / psy=1 / psy_rd=1.05:0.15 / mixed_ref=1 / me_range=48 / chroma_me=1 / trellis=2 / 8x8dct=1 / cqm=0 / deadzone=21,11 / fast_pskip=0 / chroma_qp_offset=-3 / threads=10 / lookahead_threads=2 / sliced_threads=0 / nr=0 / decimate=0 / interlaced=0 / bluray_compat=0 / constrained_intra=0 / bframes=12 / b_pyramid=2 / b_adapt=2 / b_bias=0 / direct=3 / weightb=1 / open_gop=0 / weightp=2 / keyint=240 / keyint_min=24 / scenecut=40 / intra_refresh=0 / rc_lookahead=60 / rc=2pass / mbtree=0 / bitrate=1820 / ratetol=1.0 / qcomp=0.60 / qpmin=0 / qpmax=69 / qpstep=4 / cplxblur=20.0 / qblur=0.5 / vbv_maxrate=50000 / vbv_bufsize=62500 / nal_hrd=none / filler=0 / ip_ratio=1.40 / pb_ratio=1.30 / aq=1:0.80
Language : English
Default : Yes
Forced : No
Color range : Limited
Color primaries : BT.709
Transfer characteristics : BT.709
Matrix coefficients : BT.709
Audio
ID : 2
Format : AC-3
Format/Info : Audio Coding 3
Commercial name : Dolby Digital
Codec ID : A_AC3
Duration : 1 h 34 min
Bit rate mode : Constant
Bit rate : 384 kb/s
Channel(s) : 6 channels
Channel layout : L R C LFE Ls Rs
Sampling rate : 48.0 kHz
Frame rate : 31.250 FPS (1536 SPF)
Compression mode : Lossy
Stream size : 259 MiB (17%)
Title : MVO | iTunes
Language : Russian
Service kind : Complete Main
Default : Yes
Forced : No
Menu
00:00:00.000 : :Глава 1
00:08:00.833 : :Глава 2
00:16:23.208 : :Глава 3
00:24:34.416 : :Глава 4
00:33:41.249 : :Глава 5
00:41:51.499 : :Глава 6
00:50:12.832 : :Глава 7
00:58:23.832 : :Глава 8
01:07:16.498 : :Глава 9
01:15:13.623 : :Глава 10
01:23:37.914 : :Глава 11

Релиз от: & &

Download
Для скачивания .torrent файлов необходима регистрация
Сайт не распространяет и не хранит электронные версии произведений, а лишь предоставляет доступ к создаваемому пользователями каталогу ссылок на торрент-файлы, которые содержат только списки хеш-сумм

Страница 1 из 1

Ответить на тему

   Похожие торренты   Торрент 




tracker_crontracker_cron