Регистрация ·  Логин: Пароль: Запомнить   · Забыли пароль?




Ответить на тему
Статистика раздачи
Размер: 6.74 ГБ | Зарегистрирован: 22 янв 2021, 04:14 | .torrent скачан: 0 раз(а), DHT: [ 0 ] раз(а)
Сидеров: [ 0  | 0 байт/сек ]   Личеров: [ 0  | 0 байт/сек ]   DHT: [ 0 / 0 ]
Автор Сообщение

Модератор

С нами: 2 года 4 месяца
Сообщения: 3361
Россия

Сообщение 22 янв 2021, 04:14 

[Цитировать]


Информация о фильме
Название: Встреча выпускников 2: Свадьба
Оригинальное название: Die Hochzeit
Год выхода: 2020
Жанр: Комедия
Страна: Германия
Перевод: Дублированный | iTunes
Продолжительность: 01:59:19
Режиссер: Тиль Швайгер
В ролях: Тиль Швайгер, Самуэль Финци, Милан Пешель, Лили Швайгер, Штефани Штаппенбек, Катарина Шюттлер, Жанетт Хайн, Йоханна Гастдорф, Ирена Риндье, Бьянка Наврат и др.

О фильме: Продолжение авантюрной комедии "Встреча выпускников 1.0", где троим школьным друзьям предстоит новое приключение. Томас, Нильс и Андреас продолжают искать любовь в своей взрослой жизни. Теперь им предстоит побывать на похоронах лучшего друга и успеть на свадьбу Томаса.



Файл
Качество: BDRip 720p | Die.Hochzeit.2020.GERMAN.COMPLETE.BLURAY-CWAHD
Видео: x264, 1280x536, 7254 kbps, 23,976 fps
Звук#1: русский, AC3, 5.1 ch, 48 kHz, 384 kbps | iTunes
Звук#2: немецкий, AC3, 5.1 ch, 48 kHz, 448 kbps | оригинал
Субтитры: русские (форс., полные), немецкие (полные), английские (полные)

Общее
Уникальный идентификатор : 236087172348813261705077802559860520417 (0xB19CBC47D7AB923F88B5467CB79E35E1)
Полное имя : F:TorrentVstrechaVypusknikov2BDRip720p.mkv
Формат : Matroska
Версия формата : Version 4 / Version 2
Размер файла : 6,74 Гбайт
Продолжительность : 1 ч. 59 м.
Общий поток : 8084 Кбит/сек
Дата кодирования : UTC 2021-01-17 08:27:47
Программа кодирования : mkvmerge v9.5.0 ('Quiet Fire') 64bit
Библиотека кодирования : libebml v1.3.4 + libmatroska v1.4.5

Видео
Идентификатор : 1
Формат : AVC
Формат/Информация : Advanced Video Codec
Профиль формата : [email protected]
Настройки формата : CABAC / 12 Ref Frames
Параметр CABAC формата : Да
Параметр RefFrames формата : 12 кадров
Идентификатор кодека : V_MPEG4/ISO/AVC
Продолжительность : 1 ч. 59 м.
Битрейт : 7254 Кбит/сек
Ширина : 1280 пикселей
Высота : 536 пикселей
Соотношение сторон : 2,40:1
Режим частоты кадров : Постоянный
Частота кадров : 23,976 (23976/1000) кадра/сек
Цветовое пространство : YUV
Субдискретизация насыщенности : 4:2:0
Битовая глубина : 8 бит
Тип развёртки : Прогрессивная
Бит/(Пиксели*Кадры) : 0.441
Размер потока : 6,04 Гбайт (90%)
Заголовок : Sisendrovich(R)
Библиотека кодирования : x264 core 161 r3027 4121277
Настройки программы : cabac=1 / ref=12 / deblock=1:-1:-1 / analyse=0x3:0x133 / me=tesa / subme=11 / psy=1 / psy_rd=1.00:0.00 / mixed_ref=1 / me_range=32 / chroma_me=1 / trellis=2 / 8x8dct=1 / cqm=0 / deadzone=21,11 / fast_pskip=0 / chroma_qp_offset=-2 / threads=17 / lookahead_threads=4 / sliced_threads=0 / nr=0 / decimate=0 / interlaced=0 / bluray_compat=0 / constrained_intra=0 / bframes=10 / b_pyramid=2 / b_adapt=2 / b_bias=0 / direct=3 / weightb=1 / open_gop=0 / weightp=2 / keyint=240 / keyint_min=23 / scenecut=40 / intra_refresh=0 / rc_lookahead=60 / rc=2pass / mbtree=0 / bitrate=7254 / ratetol=1.0 / qcomp=0.70 / qpmin=0 / qpmax=69 / qpstep=4 / cplxblur=20.0 / qblur=0.5 / vbv_maxrate=50000 / vbv_bufsize=62500 / nal_hrd=none / filler=0 / ip_ratio=1.40 / pb_ratio=1.30 / aq=3:0.90
Язык : German
Default : Да
Forced : Нет

Аудио #1
Идентификатор : 2
Формат : AC-3
Формат/Информация : Audio Coding 3
Параметр Endianness формата : Big
Идентификатор кодека : A_AC3
Продолжительность : 1 ч. 59 м.
Вид битрейта : Постоянный
Битрейт : 384 Кбит/сек
Каналы : 6 каналов
Расположение каналов : Front: L C R, Side: L R, LFE
Частота : 48,0 КГц
Частота кадров : 31,250 кадров/сек (1536 SPF)
Битовая глубина : 16 бит
Метод сжатия : С потерями
Размер потока : 328 Мбайт (5%)
Заголовок : rus
Язык : Russian
Default : Да
Forced : Нет

Аудио #2
Идентификатор : 3
Формат : AC-3
Формат/Информация : Audio Coding 3
Параметр Endianness формата : Big
Идентификатор кодека : A_AC3
Продолжительность : 1 ч. 59 м.
Вид битрейта : Постоянный
Битрейт : 448 Кбит/сек
Каналы : 6 каналов
Расположение каналов : Front: L C R, Side: L R, LFE
Частота : 48,0 КГц
Частота кадров : 31,250 кадров/сек (1536 SPF)
Битовая глубина : 16 бит
Метод сжатия : С потерями
Размер потока : 382 Мбайт (6%)
Заголовок : ger
Язык : German
Default : Нет
Forced : Нет

Текст #1
Идентификатор : 4
Формат : UTF-8
Идентификатор кодека : S_TEXT/UTF8
Идентификатор кодека/Информация : UTF-8 Plain Text
Продолжительность : 1 ч. 38 м.
Битрейт : 0 бит/сек
ElementCount : 6
Размер потока : 231 байт (0%)
Заголовок : rusForced
Язык : Russian
Default : Да
Forced : Нет

Текст #2
Идентификатор : 5
Формат : UTF-8
Идентификатор кодека : S_TEXT/UTF8
Идентификатор кодека/Информация : UTF-8 Plain Text
Продолжительность : 1 ч. 57 м.
Битрейт : 107 бит/сек
ElementCount : 1838
Размер потока : 92,2 Кбайт (0%)
Заголовок : rusFull
Язык : Russian
Default : Нет
Forced : Нет

Текст #3
Идентификатор : 6
Формат : UTF-8
Идентификатор кодека : S_TEXT/UTF8
Идентификатор кодека/Информация : UTF-8 Plain Text
Продолжительность : 1 ч. 58 м.
Битрейт : 73 бит/сек
ElementCount : 1669
Размер потока : 63,5 Кбайт (0%)
Заголовок : gerFull
Язык : German
Default : Нет
Forced : Нет

Текст #4
Идентификатор : 7
Формат : UTF-8
Идентификатор кодека : S_TEXT/UTF8
Идентификатор кодека/Информация : UTF-8 Plain Text
Продолжительность : 1 ч. 58 м.
Битрейт : 61 бит/сек
ElementCount : 1588
Размер потока : 52,9 Кбайт (0%)
Заголовок : engFull
Язык : English
Default : Нет
Forced : Нет

Меню
00:00:00.000 : en:Chapter 1
00:12:18.696 : en:Chapter 2
00:21:40.966 : en:Chapter 3
00:28:46.266 : en:Chapter 4
00:38:40.276 : en:Chapter 5
00:51:44.726 : en:Chapter 6
00:59:49.961 : en:Chapter 7
01:11:01.465 : en:Chapter 8
01:23:53.611 : en:Chapter 9
01:35:26.554 : en:Chapter 10
01:43:01.175 : en:Chapter 11
01:48:42.265 : en:Chapter 12


Рип и релиз от:

Download
Для скачивания .torrent файлов необходима регистрация
Сайт не распространяет и не хранит электронные версии произведений, а лишь предоставляет доступ к создаваемому пользователями каталогу ссылок на торрент-файлы, которые содержат только списки хеш-сумм

Страница 1 из 1

Ответить на тему

   Похожие торренты   Торрент 




tracker_crontracker_cron