Регистрация ·  Логин: Пароль: Запомнить   · Забыли пароль?




Ответить на тему
Статистика раздачи
Размер: 7.23 ГБ | Зарегистрирован: 22 янв 2021, 04:14 | .torrent скачан: 0 раз(а), DHT: [ 4972 ] раз(а)
Сидеров: [ 218  | 0 байт/сек ]   Личеров: [ 17  | 0 байт/сек ]   DHT: [ 218 / 17 ]
Автор Сообщение

Модератор

С нами: 2 года 4 месяца
Сообщения: 3361
Россия

Сообщение 22 янв 2021, 04:14 

[Цитировать]


Год выпуска: 2020
Страна: Великобритания, США
Студия: FilmNation Entertainment, Focus Features, LuckyChap Entertainment
Жанр: Триллер, драма, криминал
Продолжительность: 01:53:52
Перевод: Любительский многоголосый [@[email protected]]

Режиссер: Эмиральд Феннел
В ролях: Кэри Маллиган, Бо Бёрнэм, Элисон Бри, Клэнси Браун, Дженнифер Кулидж, Лаверн Кокс, Крис Лоуэлл, Конни Бриттон, Адам Броди, Макс Гринфилд, Кристофер Минц-Плассе, Альфред Молина

О фильме: Красивая, невероятно умная и подающая большие надежды студентка престижного университета – казалось ее будущее предопределено. Но одно трагическое событие меняет все. Теперь она ведет двойную жизнь и уверена, что нет ничего соблазнительнее, чем месть.



Качество: WEB-DL (1080p)
Видео: MPEG-4 AVC, 7557 Кбит/с, 1920x1080, 23,976 кадр/с
Аудио 1: Русский (AC3, 2 ch, 256 Кбит/с) | Thx KinoPub
Аудио 2: Английский (AC3, 6 ch, 640 Кбит/с)
Аудио 3: Английский (E-AC3, 6 ch, 640 Кбит/с)
СЭМПЛ | Рекламы нет!!!


Общее
Уникальный идентификатор : 165665934428042570426844551997492841814 (0x7CA2192FF47DF84AB3D870D733904D56)
Полное имя : C:UsersNickDownloadsPromising.Young.Woman.2020.1080p.AMZN.WEB-DL-KinoPub.mkv
Формат : Matroska
Версия формата : Version 4
Размер файла : 7,23 Гбайт
Продолжительность : 1 ч. 53 м.
Режим общего битрейта : Постоянный
Общий поток : 9 094 Кбит/сек
Название фильма : KinoPub: Девушка, подающая надежды / Promising Young Woman / 2020
Дата кодирования : UTC 2021-01-16 17:19:51
Программа кодирования : mkvmerge v25.0.0 ('Prog Noir') 64-bit
Библиотека кодирования : libebml v1.3.6 + libmatroska v1.4.9

Видео
Идентификатор : 1
Формат : AVC
Формат/Информация : Advanced Video Codec
Профиль формата : [email protected]
Настройки формата : CABAC / 4 Ref Frames
Параметр CABAC формата : Да
Параметр RefFrames формата : 4 кадра
Идентификатор кодека : V_MPEG4/ISO/AVC
Продолжительность : 1 ч. 53 м.
Вид битрейта : Постоянный
Битрейт : 7 557 Кбит/сек
Номинальный битрейт : 10 000 Кбит/сек
Ширина : 1 920 пикселей
Высота : 1 080 пикселей
Соотношение сторон : 16:9
Режим частоты кадров : Постоянный
Частота кадров : 23,976 (24000/1001) кадра/сек
Цветовое пространство : YUV
Субдискретизация насыщенности : 4:2:0
Битовая глубина : 8 бит
Тип развёртки : Прогрессивная
Бит/(Пиксели*Кадры) : 0.152
Размер потока : 6,01 Гбайт (83%)
Заголовок : EVO
Язык : English
Default : Да
Forced : Нет
Цветовой диапазон : Limited
Основные цвета : BT.709
Характеристики трансфера : BT.709
Коэффициенты матрицы : BT.709

Аудио #1
Идентификатор : 2
Формат : AC-3
Формат/Информация : Audio Coding 3
Коммерческое название : Dolby Digital
Идентификатор кодека : A_AC3
Продолжительность : 1 ч. 53 м.
Вид битрейта : Постоянный
Битрейт : 256 Кбит/сек
Каналы : 2 канала
Channel layout : L R
Частота : 48,0 КГц
Частота кадров : 31,250 кадров/сек (1536 SPF)
Метод сжатия : С потерями
Размер потока : 207 Мбайт (3%)
Заголовок : MVO [@[email protected]] by KinoPub
Язык : Russian
Service kind : Complete Main
Default : Да
Forced : Нет

Аудио #2
Идентификатор : 3
Формат : AC-3
Формат/Информация : Audio Coding 3
Коммерческое название : Dolby Digital
Идентификатор кодека : A_AC3
Продолжительность : 1 ч. 53 м.
Вид битрейта : Постоянный
Битрейт : 640 Кбит/сек
Каналы : 6 каналов
Channel layout : L R C LFE Ls Rs
Частота : 48,0 КГц
Частота кадров : 31,250 кадров/сек (1536 SPF)
Метод сжатия : С потерями
Размер потока : 521 Мбайт (7%)
Язык : English
Service kind : Complete Main
Default : Нет
Forced : Нет

Аудио #3
Идентификатор : 4
Формат : E-AC-3
Формат/Информация : Enhanced AC-3
Коммерческое название : Dolby Digital Plus
Идентификатор кодека : A_EAC3
Продолжительность : 1 ч. 53 м.
Вид битрейта : Постоянный
Битрейт : 640 Кбит/сек
Каналы : 6 каналов
Channel layout : L R C LFE Ls Rs
Частота : 48,0 КГц
Частота кадров : 31,250 кадров/сек (1536 SPF)
Метод сжатия : С потерями
Размер потока : 521 Мбайт (7%)
Язык : English
Service kind : Complete Main
Default : Нет
Forced : Нет

Download
Для скачивания .torrent файлов необходима регистрация
Сайт не распространяет и не хранит электронные версии произведений, а лишь предоставляет доступ к создаваемому пользователями каталогу ссылок на торрент-файлы, которые содержат только списки хеш-сумм

Страница 1 из 1

Ответить на тему

   Похожие торренты   Торрент 




tracker_crontracker_cron