Регистрация ·  Логин: Пароль: Запомнить   · Забыли пароль?




Ответить на тему
Статистика раздачи
Размер: 2.05 ГБ | Зарегистрирован: 22 янв 2021, 04:14 | .torrent скачан: 0 раз(а), DHT: [ 0 ] раз(а)
Сидеров: [ 0  | 0 байт/сек ]   Личеров: [ 0  | 0 байт/сек ]   DHT: [ 0 / 0 ]
Автор Сообщение

Модератор

С нами: 2 года 4 месяца
Сообщения: 3361
Россия

Сообщение 22 янв 2021, 04:14 

[Цитировать]

Шесть минут до полуночи / Six Minutes to Midnight

Информация о фильме:
Название: Шесть минут до полуночи
Оригинальное название: Six Minutes to Midnight
Год выхода: 2020
Жанр: Драма
Режиссер: Энди Годдард
В ролях: Джуди Денч, Джеймс Д`Арси, Джим Бродбент, Эдди Иззард, Дэвид Скофилд, Карла Юри, Найджел Линдсэй, Кевин Элдон, Мария-Виктория Драгуш, Руперт Холидэй-Эванс
Описание: Англия. Канун Второй мировой войны. Томас Миллер, учитель английского языка в Союзе немецких девушек, однажды высказывается против Адольфа Гитлера, после чего его обвиняют в убийстве и шпионаже. Директор школы мисс Роколл помогает Миллеру бежать.

Страна: Великобритания
Студия: Mad As Birds, West Madison Entertainment
Продолжительность: 01:39:22
Перевод: Дублированный - iTunes

Информация о файле:
Кодек: AVC
Формат: MKV
Качество: HDRip-AVC
Видео: MPEG-4 AVC, 1024x428, 24.000 fps, 2119 kbps
Аудио RU: 48 kHz, AC3, 5.1, 384 Kbps
Аудио EN: 48 kHz, AC3, 5.1, 448 Kbps
Субтитры: Нет
Навигация по главам: Да


General
Unique ID : 154568819810131668287560401810416860243 (0x7448DF31D46F45AF0612A6BDFEFDFC53)
Complete name : D:uTorrentРипы_от_wolf1245_MediaBitSix Minutes to Midnight.2020.HDRip-AVC_wolf1245_MediaBit.mkv
Format : Matroska
Format version : Version 4
File size : 2.05 GiB
Duration : 1 h 39 min
Overall bit rate : 2 948 kb/s
Movie name : Six Minutes to Midnight.2020.HDRip-AVC_wolf1245_MediaBit
Encoded date : UTC 2021-01-17 06:57:42
Writing application : mkvmerge v52.0.0 ('Secret For The Mad') 64-bit
Writing library : libebml v1.4.1 + libmatroska v1.6.2
Video
ID : 1
Format : AVC
Format/Info : Advanced Video Codec
Format profile : [email protected]
Format settings : CABAC / 12 Ref Frames
Format settings, CABAC : Yes
Format settings, Reference frames : 12 frames
Codec ID : V_MPEG4/ISO/AVC
Duration : 1 h 39 min
Bit rate : 2 119 kb/s
Width : 1 024 pixels
Height : 428 pixels
Display aspect ratio : 2.40:1
Frame rate mode : Constant
Frame rate : 24.000 FPS
Color space : YUV
Chroma subsampling : 4:2:0
Bit depth : 8 bits
Scan type : Progressive
Bits/(Pixel*Frame) : 0.201
Stream size : 1.47 GiB (72%)
Title : _wolf1245_MediaBit
Writing library : x264 core 157 r2958 57baac4
Encoding settings : cabac=1 / ref=12 / deblock=1:-3:-3 / analyse=0x3:0x133 / me=umh / subme=11 / psy=1 / psy_rd=1.05:0.05 / mixed_ref=1 / me_range=48 / chroma_me=1 / trellis=2 / 8x8dct=1 / cqm=0 / deadzone=21,11 / fast_pskip=0 / chroma_qp_offset=-3 / threads=10 / lookahead_threads=2 / sliced_threads=0 / nr=0 / decimate=0 / interlaced=0 / bluray_compat=0 / constrained_intra=0 / bframes=12 / b_pyramid=2 / b_adapt=2 / b_bias=0 / direct=3 / weightb=1 / open_gop=0 / weightp=2 / keyint=240 / keyint_min=24 / scenecut=40 / intra_refresh=0 / rc_lookahead=100 / rc=2pass / mbtree=0 / bitrate=2119 / ratetol=1.0 / qcomp=0.60 / qpmin=0 / qpmax=69 / qpstep=4 / cplxblur=20.0 / qblur=0.5 / vbv_maxrate=50000 / vbv_bufsize=62500 / nal_hrd=none / filler=0 / ip_ratio=1.40 / pb_ratio=1.30 / aq=1:0.80
Language : Italian
Default : Yes
Forced : No
Audio #1
ID : 2
Format : AC-3
Format/Info : Audio Coding 3
Commercial name : Dolby Digital
Codec ID : A_AC3
Duration : 1 h 39 min
Bit rate mode : Constant
Bit rate : 384 kb/s
Channel(s) : 6 channels
Channel layout : L R C LFE Ls Rs
Sampling rate : 48.0 kHz
Frame rate : 31.250 FPS (1536 SPF)
Compression mode : Lossy
Stream size : 273 MiB (13%)
Title : DUB | iTunes
Language : Russian
Service kind : Complete Main
Default : Yes
Forced : No
Audio #2
ID : 3
Format : AC-3
Format/Info : Audio Coding 3
Commercial name : Dolby Digital
Codec ID : A_AC3
Duration : 1 h 39 min
Bit rate mode : Constant
Bit rate : 448 kb/s
Channel(s) : 6 channels
Channel layout : L R C LFE Ls Rs
Sampling rate : 48.0 kHz
Frame rate : 31.250 FPS (1536 SPF)
Compression mode : Lossy
Stream size : 318 MiB (15%)
Title : Original
Language : English
Service kind : Complete Main
Default : No
Forced : No
Menu
00:00:00.000 : :Глава 01
00:06:18.208 : :Глава 02
00:15:55.083 : :Глава 03
00:24:33.583 : :Глава 04
00:30:56.792 : :Глава 05
00:42:16.042 : :Глава 06
00:52:46.417 : :Глава 07
01:01:24.625 : :Глава 08
01:09:20.042 : :Глава 09
01:18:03.333 : :Глава 10
01:28:05.458 : :Глава 11
01:30:38.583 : :Глава 12

Релиз от: & &

Download
Для скачивания .torrent файлов необходима регистрация
Сайт не распространяет и не хранит электронные версии произведений, а лишь предоставляет доступ к создаваемому пользователями каталогу ссылок на торрент-файлы, которые содержат только списки хеш-сумм

Страница 1 из 1

Ответить на тему

   Похожие торренты   Торрент 




tracker_crontracker_cron