Регистрация ·  Логин: Пароль: Запомнить   · Забыли пароль?




Ответить на тему
Статистика раздачи
Размер: 6.39 ГБ | Зарегистрирован: 22 янв 2021, 04:13 | .torrent скачан: 0 раз(а), DHT: [ 0 ] раз(а)
Сидеров: [ 0  | 0 байт/сек ]   Личеров: [ 0  | 0 байт/сек ]   DHT: [ 0 / 0 ]
Автор Сообщение

Модератор

С нами: 2 года 4 месяца
Сообщения: 3361
Россия

Сообщение 22 янв 2021, 04:13 

[Цитировать]


Информация о фильме
Название: Линия горизонта
Оригинальное название: Horizon Line
Год выхода: 2020
Жанр: триллер
Режиссер: Микаэль Марсимаин
В ролях: Эллисон Уильямс, Александр Дреймон, Кит Дэвид, Пёрл Маки, Джамейн Хантер, Аманда Кхан, Привилич Могези, Кейт Шепард, Дэйзи Йип Тонг, Ламин Тамба
О фильме:
Тропический остров. Свадьба друзей. Частный самолет… Все складывалось как нельзя лучше для Сары и Джексона, пока у пилота не случился сердечный приступ прямо в небе. Одни на огромной высоте, без всякой связи, а главное — без понятия, как посадить самолет. Вокруг только небо и штормовой океан.

Страна: Швеция, США
Продолжительность: 01:31:33
Перевод: Профессиональный дублированный (Line)
Файл
Кодек: x.264
Качество: WEB-DL 1080p | Amazon
Видео: AVC, 1920x800 (2.40:1), 23.976 fps, 9 157 kb/s
Аудио 1: AC3, 48.0 kHz, 2 ch, 192 kb/s | [DUB - Line] RUS | Thx KinoPub
Аудио 2: E-AC3, 48.0 kHz, 6 ch, 640 kb/s | [Оригинал] ENG
Субтитры: английские

Сэмпл | Трейлер

General
Unique ID : 209014651302716904324896869668919424238 (0x9D3EC1F07F72DA51820C7A150553B4EE)
Complete name : Horizon.Line.2020.AMZN.WEB-DL.1080p.Line.mkv
Format : Matroska
Format version : Version 4
File size : 6.39 GiB
Duration : 1 h 31 min
Overall bit rate : 9 991 kb/s
Encoded date : UTC 2021-01-15 16:23:29
Writing application : mkvmerge v8.3.0 ('Over the Horizon') 64bit
Writing library : libebml v1.3.1 + libmatroska v1.4.2

Video
ID : 1
Format : AVC
Format/Info : Advanced Video Codec
Format profile : [email protected]
Format settings : CABAC / 4 Ref Frames
Format settings, CABAC : Yes
Format settings, ReFrames : 4 frames
Codec ID : V_MPEG4/ISO/AVC
Duration : 1 h 31 min
Bit rate mode : Constant
Bit rate : 9 157 kb/s
Nominal bit rate : 10 000 kb/s
Width : 1 920 pixels
Height : 800 pixels
Display aspect ratio : 2.40:1
Frame rate mode : Constant
Frame rate : 23.976 (24000/1001) FPS
Color space : YUV
Chroma subsampling : 4:2:0
Bit depth : 8 bits
Scan type : Progressive
Bits/(Pixel*Frame) : 0.249
Stream size : 5.86 GiB (92%)
Default : Yes
Forced : No
Color range : Limited
Color primaries : BT.709
Transfer characteristics : BT.709
Matrix coefficients : BT.709

Audio #1
ID : 2
Format : AC-3
Format/Info : Audio Coding 3
Commercial name : Dolby Digital
Codec ID : A_AC3
Duration : 1 h 31 min
Bit rate mode : Constant
Bit rate : 192 kb/s
Channel(s) : 2 channels
Channel layout : L R
Sampling rate : 48.0 kHz
Frame rate : 31.250 FPS (1536 SPF)
Bit depth : 16 bits
Compression mode : Lossy
Stream size : 126 MiB (2%)
Title : DUB (Line)
Language : Russian
Service kind : Complete Main
Default : Yes
Forced : No

Audio #2
ID : 3
Format : E-AC-3
Format/Info : Enhanced AC-3
Commercial name : Dolby Digital Plus
Codec ID : A_EAC3
Duration : 1 h 31 min
Bit rate mode : Constant
Bit rate : 640 kb/s
Channel(s) : 6 channels
Channel layout : L R C LFE Ls Rs
Sampling rate : 48.0 kHz
Frame rate : 31.250 FPS (1536 SPF)
Compression mode : Lossy
Stream size : 419 MiB (6%)
Language : English
Service kind : Complete Main
Default : No
Forced : No

Text
ID : 4
Format : UTF-8
Codec ID : S_TEXT/UTF8
Codec ID/Info : UTF-8 Plain Text
Duration : 1 h 25 min
Bit rate : 49 b/s
Count of elements : 1076
Stream size : 30.8 KiB (0%)
Title : SDH
Language : English
Default : No
Forced : No

Download
Для скачивания .torrent файлов необходима регистрация
Сайт не распространяет и не хранит электронные версии произведений, а лишь предоставляет доступ к создаваемому пользователями каталогу ссылок на торрент-файлы, которые содержат только списки хеш-сумм

Страница 1 из 1

Ответить на тему

   Похожие торренты   Торрент 




tracker_crontracker_cron