Регистрация ·  Логин: Пароль: Запомнить   · Забыли пароль?




Ответить на тему
Статистика раздачи
Размер: 11.25 ГБ | Зарегистрирован: 22 янв 2021, 04:12 | .torrent скачан: 0 раз(а), DHT: [ 3107 ] раз(а)
Сидеров: [ 104  | 0 байт/сек ]   Личеров: [ 9  | 0 байт/сек ]   DHT: [ 104 / 9 ]
Автор Сообщение

Модератор

С нами: 2 года 5 месяцев
Сообщения: 3401
Россия

Сообщение 22 янв 2021, 04:12 

[Цитировать]


Информация
Название: Охота на Санту
Оригинальное название: Fatman
Год выхода: 2020
Жанр: Фэнтези, боевик, триллер, комедия
Режиссер: Эшом Нелмс, Йен Нелмс
В ролях: Мэл Гибсон, Уолтон Гоггинс, Марианн Жан-Баптист, Чэнс Херстфилд, Шон Бенсон, Паулино Нюнс, Марк Дэй, Дебора Гровер, Мишель Мисти Лэнг, Роберт Бокстэл

Описание: Обиженный на Санту мальчик нанимает киллера, чтобы отомстить за плохой подарок. Но он не подозревает, что Санта не так прост и за долгие годы службы приобрел много необычных навыков.



Страна: Великобритания, Канада, США
Студия: Carte Blanche, Fortitude International, Ingenious, Mammoth Entertainment, RBL Studios, Sprockefeller Pictures, Windy Hill Pictures, Zed Filmworks
Продолжительность: 01:40:04
Перевод: Дублированный | IVI

Файл
Качество: BDRip 1080p
Формат: MKV
Кодек: MPEG-4 AVC
Видео: 1920x800 (2.40:1), 23, 976 fps, MPEG-4 AVC ~ 15.1 Mbps avg, 0.409 bit/pixel
Аудио 1: AC3, 48 kHz, 6 ch, ~384.00 kbps avg | русский
Аудио 2: AC3, 48 kHz, 6 ch, ~640.00 kbps avg | английский
Субтитры: Английские (Full, SDH)

Релиз группы &

Fatman.2020.1080p.BluRay.ELEKTRI4KA.UNIONGANG.mkv
Format : Matroska
Format version : Version 4 / Version 2
File size : 11.3 GiB
Duration : 1 h 40 min
Overall bit rate : 16.1 Mb/s
Movie name : .ELEKTRI4KA.UNIONGANG.
Encoded date : UTC 2021-01-15 13:14:44
Writing application : mkvmerge v8.3.0 ('Over the Horizon') 64bit
Writing library : libebml v1.3.1 + libmatroska v1.4.2

Video
ID : 1
Format : AVC
Format/Info : Advanced Video Codec
Format profile : [email protected]
Format settings, CABAC : Yes
Format settings, Reference frames : 5 frames
Codec ID : V_MPEG4/ISO/AVC
Duration : 1 h 40 min
Bit rate : 15.1 Mb/s
Width : 1 920 pixels
Height : 800 pixels
Display aspect ratio : 2.40:1
Frame rate mode : Constant
Frame rate : 23.976 (24000/1001) FPS
Color space : YUV
Chroma subsampling : 4:2:0
Bit depth : 8 bits
Scan type : Progressive
Bits/(Pixel*Frame) : 0.409
Stream size : 10.5 GiB (94%)
Writing library : x264 core 161 r3018+53 ~ Encoded by Mocunaman in Portugal
Encoding settings : cabac=1 / ref=5 / deblock=1:-3:-3 / analyse=0x3:0x113 / me=umh / subme=11 / psy=1 / fade_compensate=0.00 / psy_rd=1.00:0.00 / mixed_ref=1 / me_range=32 / chroma_me=1 / trellis=2 / 8x8dct=1 / cqm=0 / deadzone=21,11 / fast_pskip=0 / chroma_qp_offset=-2 / threads=25 / lookahead_threads=4 / sliced_threads=0 / nr=0 / decimate=0 / interlaced=0 / bluray_compat=0 / constrained_intra=0 / fgo=0 / bframes=9 / b_pyramid=2 / b_adapt=2 / b_bias=0 / direct=3 / weightb=1 / open_gop=0 / weightp=2 / keyint=250 / keyint_min=23 / scenecut=40 / intra_refresh=0 / rc_lookahead=60 / rc=crf / mbtree=0 / crf=16.8000 / qcomp=0.65 / qpmin=0:0:0 / qpmax=69:69:69 / qpstep=4 / vbv_maxrate=62500 / vbv_bufsize=78125 / crf_max=0.0 / nal_hrd=none / filler=0 / ip_ratio=1.30 / pb_ratio=1.20 / aq=3:0.85 / aq-sensitivity=10.00 / aq-factor=1.00:1.00:1.00 / aq2=0 / aq3=0 / zones=0,1076,crf=15.3/1660,5246,crf=16.3/13061,15308,crf=16/17444,42928,crf=16.3/49955,52861,crf=16.5/59941,66641,crf=16.3/70501,73981,crf=16/78925,79813,crf=15.8/81541,88501,crf=16.3/92885,95440,crf=15.8/104800,107999,crf=16.3/108911,116520,crf=15.8/130681,138097,crf=16.3
Language : English
Default : Yes
Forced : No
Color range : Limited
Color primaries : BT.709
Transfer characteristics : BT.709
Matrix coefficients : BT.709

Audio #1
ID : 2
Format : AC-3
Format/Info : Audio Coding 3
Mode extension : CM (complete main)
Format settings, Endianness : Big
Codec ID : A_AC3
Duration : 1 h 40 min
Bit rate mode : Constant
Bit rate : 384 kb/s
Channel(s) : 6 channels
Channel positions : Front: L C R, Side: L R, LFE
Sampling rate : 48.0 kHz
Frame rate : 31.250 FPS (1536 spf)
Bit depth : 16 bits
Compression mode : Lossy
Stream size : 275 MiB (2%)
Title : DUB (IVI)
Language : Russian
Default : Yes
Forced : Yes

Audio #2
ID : 3
Format : AC-3
Format/Info : Audio Coding 3
Mode extension : CM (complete main)
Format settings, Endianness : Big
Codec ID : A_AC3
Duration : 1 h 40 min
Bit rate mode : Constant
Bit rate : 640 kb/s
Channel(s) : 6 channels
Channel positions : Front: L C R, Side: L R, LFE
Sampling rate : 48.0 kHz
Frame rate : 31.250 FPS (1536 spf)
Bit depth : 16 bits
Compression mode : Lossy
Stream size : 458 MiB (4%)
Title : AC3 DD5.1 640kbs
Language : English
Default : No
Forced : No

Text #1
ID : 4
Format : UTF-8
Codec ID : S_TEXT/UTF8
Codec ID/Info : UTF-8 Plain Text
Duration : 1 h 34 min
Bit rate : 43 b/s
Count of elements : 1079
Stream size : 30.3 KiB (0%)
Title : Full .srt
Language : English
Default : No
Forced : No

Text #2
ID : 5
Format : UTF-8
Codec ID : S_TEXT/UTF8
Codec ID/Info : UTF-8 Plain Text
Duration : 1 h 37 min
Bit rate : 44 b/s
Count of elements : 1170
Stream size : 31.9 KiB (0%)
Title : SDH .srt
Language : English
Default : No
Forced : No

Menu
00:00:00.000 : en:Chapter 01
00:14:04.719 : en:Chapter 02
00:27:23.392 : en:Chapter 03
00:39:03.841 : en:Chapter 04
00:51:24.707 : en:Chapter 05
01:12:50.199 : en:Chapter 06
01:22:26.775 : en:Chapter 07
01:37:02.817 : en:Chapter 08




Download
Для скачивания .torrent файлов необходима регистрация
Сайт не распространяет и не хранит электронные версии произведений, а лишь предоставляет доступ к создаваемому пользователями каталогу ссылок на торрент-файлы, которые содержат только списки хеш-сумм

Страница 1 из 1

Ответить на тему

   Похожие торренты   Торрент