Регистрация ·  Логин: Пароль: Запомнить   · Забыли пароль?




Ответить на тему
Статистика раздачи
Размер: 26.21 ГБ | Зарегистрирован: 22 янв 2021, 04:11 | .torrent скачан: 0 раз(а), DHT: [ 405 ] раз(а)
Сидеров: [ 11  | 0 байт/сек ]   Личеров: [ 0  | 0 байт/сек ]   DHT: [ 11 / 0 ]
Автор Сообщение

Модератор

С нами: 2 года 4 месяца
Сообщения: 3361
Россия

Сообщение 22 янв 2021, 04:11 

[Цитировать]


Информация о фильме
Название: Дрожь земли 7: Остров крикунов
Оригинальное название: Tremors: Shrieker Island
Год выхода: 2020
Жанр: боевик, ужасы
Режиссер: Дон Майкл Пол
В ролях: Джеки Круз, Ричард Брэйк, Джон Хидер, Майкл Гросс, Кэролайн Лэнгриш, Рон Смуренбург, Кэсси Клер, Брахим Чаб, Сахайак Бунтханакит, Медведь Уильямс
О фильме: Богатенький плейбой незаконно завёз Грабоидов на курортный остров, чтобы устроить опасную трофейную охоту. Миру снова понадобится помощь Бёрта Гаммера в борьбе с этими тварями.

Страна: США
Студия: Living Films, Universal 1440 Entertainment
Продолжительность: 01:42:23
Озвучивание: Дублированный | iTunes
Файл
Формат: MKV
Качество: BDRemux 1080p
Видео: MPEG-4 AVC, 32.2 Mbit/s, 1920x1080, 23.976 fps
Аудио 1: 48 kHz, AC3 Dolby Digital, 3/2 (L, C, R, l, r) + LFE ch, ~384 kbps | русский
Аудио 2: 48 kHz, DTS-HD MA, 3/2 (L, C, R, l, r) + LFE ch, ~4087 kbps | английский
Субтитры: English
Дополнительно: Сохранены оригинальные чаптеры.
Релиз группы &

Tremors.Shrieker.Island.2020.1080p.BDREMUX.ELEKTRI4KA.UNIONGANG.mkv
Format : Matroska
Format version : Version 4
File size : 26.2 GiB
Duration : 1 h 42 min
Overall bit rate mode : Variable
Overall bit rate : 36.6 Mb/s
Movie name : Tremors Shrieker Island (2020) by ELEKTRI4KA
Encoded date : UTC 2021-01-14 22:25:22
Writing application : mkvmerge v52.0.0 ('Secret For The Mad') 64-bit
Writing library : libebml v1.4.1 + libmatroska v1.6.2

Video
ID : 1
ID in the original source medium : 4113 (0x1011)
Format : AVC
Format/Info : Advanced Video Codec
Format profile : [email protected]
Format settings : CABAC / 4 Ref Frames
Format settings, CABAC : Yes
Format settings, Reference frames : 4 frames
Codec ID : V_MPEG4/ISO/AVC
Duration : 1 h 42 min
Bit rate mode : Variable
Bit rate : 32.2 Mb/s
Maximum bit rate : 36.0 Mb/s
Width : 1 920 pixels
Height : 1 080 pixels
Display aspect ratio : 16:9
Frame rate mode : Constant
Frame rate : 23.976 (24000/1001) FPS
Color space : YUV
Chroma subsampling : 4:2:0
Bit depth : 8 bits
Scan type : Progressive
Bits/(Pixel*Frame) : 0.647
Stream size : 23.0 GiB (88%)
Title : Tremors Shrieker Island (2020) by ELEKTRI4KA
Language : English
Default : Yes
Forced : No
Original source medium : Blu-ray

Audio #1
ID : 2
Format : AC-3
Format/Info : Audio Coding 3
Commercial name : Dolby Digital
Codec ID : A_AC3
Duration : 1 h 42 min
Bit rate mode : Constant
Bit rate : 384 kb/s
Channel(s) : 6 channels
Channel layout : L R C LFE Ls Rs
Sampling rate : 48.0 kHz
Frame rate : 31.250 FPS (1536 SPF)
Compression mode : Lossy
Stream size : 281 MiB (1%)
Title : Dub (iTunes)
Language : Russian
Service kind : Complete Main
Default : Yes
Forced : No

Audio #2
ID : 3
ID in the original source medium : 4352 (0x1100)
Format : DTS XLL
Format/Info : Digital Theater Systems
Commercial name : DTS-HD Master Audio
Codec ID : A_DTS
Duration : 1 h 42 min
Bit rate mode : Variable
Bit rate : 4 087 kb/s
Channel(s) : 6 channels
Channel layout : C L R Ls Rs LFE
Sampling rate : 48.0 kHz
Frame rate : 93.750 FPS (512 SPF)
Bit depth : 24 bits
Compression mode : Lossless
Stream size : 2.92 GiB (11%)
Title : DTS-HD.MA.5.1
Language : English
Default : No
Forced : No
Original source medium : Blu-ray

Text
ID : 4
Format : UTF-8
Codec ID : S_TEXT/UTF8
Codec ID/Info : UTF-8 Plain Text
Duration : 1 h 31 min
Bit rate : 50 b/s
Count of elements : 1027
Stream size : 33.9 KiB (0%)
Title : English-SRT
Language : English
Default : No
Forced : No

Menu
00:00:00.000 : en:Chapter 01
00:05:25.700 : en:Chapter 02
00:09:35.825 : en:Chapter 03
00:15:41.482 : en:Chapter 04
00:20:10.792 : en:Chapter 05
00:28:44.806 : en:Chapter 06
00:32:48.800 : en:Chapter 07
00:36:44.785 : en:Chapter 08
00:40:42.523 : en:Chapter 09
00:45:20.968 : en:Chapter 10
00:50:04.459 : en:Chapter 11
00:55:01.589 : en:Chapter 12
01:00:17.488 : en:Chapter 13
01:05:59.038 : en:Chapter 14
01:10:24.553 : en:Chapter 15
01:14:31.216 : en:Chapter 16
01:22:49.172 : en:Chapter 17
01:26:39.694 : en:Chapter 18
01:29:45.755 : en:Chapter 19
01:37:07.613 : en:Chapter 20



Download
Для скачивания .torrent файлов необходима регистрация
Сайт не распространяет и не хранит электронные версии произведений, а лишь предоставляет доступ к создаваемому пользователями каталогу ссылок на торрент-файлы, которые содержат только списки хеш-сумм

Страница 1 из 1

Ответить на тему

   Похожие торренты   Торрент 




tracker_crontracker_cron