Регистрация ·  Логин: Пароль: Запомнить   · Забыли пароль?




Ответить на тему
Статистика раздачи
Размер: 11.64 ГБ | Зарегистрирован: 28 дек 2020, 03:08 | .torrent скачан: 0 раз(а), DHT: [ 2620 ] раз(а)
Сидеров: [ 448  | 0 байт/сек ]   Личеров: [ 117  | 0 байт/сек ]   DHT: [ 448 / 117 ]
Автор Сообщение

Модератор

С нами: 2 года 5 месяцев
Сообщения: 3401
Россия

Сообщение 28 дек 2020, 03:08 

[Цитировать]


Информация о фильме
Название: Чудо-женщина: 1984
Оригинальное название: Wonder Woman 1984
Год выхода: 2020
Жанр: Фэнтези, боевик, приключения
Режиссер: Патти Дженкинс
В ролях: Галь Гадот, Крис Пайн, Кристен Уиг, Педро Паскаль, Робин Райт, Конни Нильсен, Лилли Аспелл, Амр Вакед, Кристоффер Полаха, Наташа Ротуэлл

О фильме: Влиятельный и успешный бизнесмен Лорд мечтает стать богом среди смертных. Для этого он не жалеет средств и собирает со всех уголков света разнообразные магические артефакты, пытаясь найти тот, который сможет подарить ему безграничную силу и могущество. В поисках ему помогает специалист по древней истории доктор Барбара Энн Минерва. Так в руки Минервы попадает некий артефакт, который превращает её в дикую, кровожадную и неуправляемую женщину-кошку — Гепарду. Вне себя от ярости она начинает охоту за Лордом, по чьей вине и превратилась в монстра.


Страна: США, Великобритания, Испания
Студия: Atlas Entertainment, DC Comics, DC Entertainment
Продолжительность: 02:31:06
Перевод: Любительский двухголосый, любительский многоголосый

*AMZN версия
РЕКЛАМЫ НЕТ

Файл
Кодек: MPEG-4 AVC
Качество: WEB-DL 1080p
Видео: 10000 Кбит/с, 1920x1040, 23.976 кадр/с
Звук:
Аудио #1: AC3, 48 Гц, 256 Кбит/сек, 2 ch (L + R) | MVO | HamsterStudio
Аудио #2: AC3, 48 Гц, 256 Кбит/сек, 2 ch (L + R) | MVO | AlphaProject - Звуковая дорожка была почищена и синхронизирована по заказу KinoPub
Аудио #3: AC3, 48 Гц, 192Кбит/сек, 2 ch (L + R) | DVO | DuoWave - вольная озвучка, голоса от HDRezka
Субтитры: Русские, английские

Семпл
Общее
Уникальный идентификатор : 330924664187731349380460415241733348140 (0xF8F5C5A26AE0991AD15E63FC40411B2C)
Полное имя : D:ТоррентыChudo.Zhenschina.2020.x264.WEB-DL-1080p-MediaBit.mkv
Формат : Matroska
Версия формата : Version 4
Размер файла : 11,6 Гбайт
Продолжительность : 2 ч. 31 м.
Общий поток : 11,0 Мбит/сек
Название фильма : Чудо-женщина: 1984 / Wonder Woman 1984 (Amazon) / 2020
Дата кодирования : UTC 2020-12-27 13:49:50
Программа кодирования : mkvmerge v25.0.0 ('Prog Noir') 64-bit
Библиотека кодирования : libebml v1.3.6 + libmatroska v1.4.9
Обложка : Yes
Attachments : Covers.jpg

Видео
Идентификатор : 1
Формат : AVC
Формат/Информация : Advanced Video Codec
Профиль формата : [email protected]
Настройки формата : CABAC / 4 Ref Frames
Параметр CABAC формата : Да
Параметр RefFrames формата : 4 кадра
Идентификатор кодека : V_MPEG4/ISO/AVC
Продолжительность : 2 ч. 31 м.
Вид битрейта : Постоянный
Битрейт : 10 000 Кбит/сек
Ширина : 1 920 пикселей
Высота : 1 040 пикселей
Соотношение сторон : 1,890
Соотношение сторон в оригинале : 1,85:1
Режим частоты кадров : Постоянный
Частота кадров : 23,976 (24000/1001) кадра/сек
Цветовое пространство : YUV
Субдискретизация насыщенности : 4:2:0
Битовая глубина : 8 бит
Тип развёртки : Прогрессивная
Бит/(Пиксели*Кадры) : 0.209
Размер потока : 10,2 Гбайт (88%)
Заголовок : MediaBit
Язык : Russian
Default : Да
Forced : Нет
Цветовой диапазон : Limited
Основные цвета : BT.709
Характеристики трансфера : BT.709
Коэффициенты матрицы : BT.709

Аудио #1
Идентификатор : 2
Формат : AC-3
Формат/Информация : Audio Coding 3
Коммерческое название : Dolby Digital
Идентификатор кодека : A_AC3
Продолжительность : 2 ч. 31 м.
Вид битрейта : Постоянный
Битрейт : 256 Кбит/сек
Каналы : 2 канала
Channel layout : L R
Частота : 48,0 КГц
Частота кадров : 31,250 кадров/сек (1536 SPF)
Метод сжатия : С потерями
Размер потока : 277 Мбайт (2%)
Заголовок : MVO [HamsterStudio]
Service kind : Complete Main
Default : Нет
Forced : Нет

Аудио #2
Идентификатор : 3
Формат : AC-3
Формат/Информация : Audio Coding 3
Коммерческое название : Dolby Digital
Идентификатор кодека : A_AC3
Продолжительность : 2 ч. 31 м.
Вид битрейта : Постоянный
Битрейт : 256 Кбит/сек
Каналы : 2 канала
Channel layout : L R
Частота : 48,0 КГц
Частота кадров : 31,250 кадров/сек (1536 SPF)
Метод сжатия : С потерями
Размер потока : 277 Мбайт (2%)
Заголовок : MVO [AlphaProject] По заказу KinoPub
Язык : Russian
Service kind : Complete Main
Default : Да
Forced : Нет

Аудио #3
Идентификатор : 4
Формат : AC-3
Формат/Информация : Audio Coding 3
Коммерческое название : Dolby Digital
Идентификатор кодека : A_AC3
Продолжительность : 2 ч. 31 м.
Вид битрейта : Постоянный
Битрейт : 192 Кбит/сек
Каналы : 2 канала
Channel layout : L R
Частота : 48,0 КГц
Частота кадров : 31,250 кадров/сек (1536 SPF)
Метод сжатия : С потерями
Размер потока : 207 Мбайт (2%)
Заголовок : DVO [DuoWave]
Язык : Russian
Service kind : Complete Main
Default : Нет
Forced : Нет

Аудио #4
Идентификатор : 5
Формат : AC-3
Формат/Информация : Audio Coding 3
Коммерческое название : Dolby Digital
Идентификатор кодека : A_AC3
Продолжительность : 2 ч. 31 м.
Вид битрейта : Постоянный
Битрейт : 640 Кбит/сек
Каналы : 6 каналов
Channel layout : L R C LFE Ls Rs
Частота : 48,0 КГц
Частота кадров : 31,250 кадров/сек (1536 SPF)
Метод сжатия : С потерями
Размер потока : 692 Мбайт (6%)
Заголовок : Original
Язык : English
Service kind : Complete Main
Default : Нет
Forced : Нет

Текст #1
Идентификатор : 6
Формат : UTF-8
Идентификатор кодека : S_TEXT/UTF8
Идентификатор кодека/Информация : UTF-8 Plain Text
Продолжительность : 2 ч. 26 м.
Битрейт : 79 бит/сек
Count of elements : 1841
Размер потока : 85,5 Кбайт (0%)
Заголовок : FOCS
Язык : Russian
Default : Нет
Forced : Нет

Текст #2
Идентификатор : 7
Формат : UTF-8
Идентификатор кодека : S_TEXT/UTF8
Идентификатор кодека/Информация : UTF-8 Plain Text
Продолжительность : 2 ч. 26 м.
Битрейт : 51 бит/сек
Count of elements : 3167
Размер потока : 55,1 Кбайт (0%)
Заголовок : English
Язык : English
Default : Нет
Forced : Нет


Релиз от:


Download
Для скачивания .torrent файлов необходима регистрация
Сайт не распространяет и не хранит электронные версии произведений, а лишь предоставляет доступ к создаваемому пользователями каталогу ссылок на торрент-файлы, которые содержат только списки хеш-сумм

Страница 1 из 1

Ответить на тему

   Похожие торренты   Торрент