Регистрация ·  Логин: Пароль: Запомнить   · Забыли пароль?




Ответить на тему
Статистика раздачи
Размер: 5.15 ГБ | Зарегистрирован: 28 дек 2020, 03:08 | .torrent скачан: 1 раз(а), DHT: [ 6455 ] раз(а)
Сидеров: [ 820  | 0 байт/сек ]   Личеров: [ 216  | 0 байт/сек ]   DHT: [ 820 / 216 ]
Автор Сообщение

Модератор

С нами: 2 года 5 месяцев
Сообщения: 3401
Россия

Сообщение 28 дек 2020, 03:08 

[Цитировать]


Информация о фильме
Название: Чудо-женщина: 1984
Оригинальное название: Wonder Woman 1984
Год выхода: 2020
Жанр: Фэнтези, боевик, приключения
Режиссер: Патти Дженкинс
В ролях: Галь Гадот, Крис Пайн, Кристен Уиг, Педро Паскаль, Робин Райт, Конни Нильсен, Лилли Аспелл, Амр Вакед, Кристоффер Полаха, Наташа Ротуэлл

О фильме:
Влиятельный и успешный бизнесмен Лорд мечтает стать богом среди смертных. Для этого он не жалеет средств и собирает со всех уголков света разнообразные магические артефакты, пытаясь найти тот, который сможет подарить ему безграничную силу и могущество. В поисках ему помогает специалист по древней истории доктор Барбара Энн Минерва. Так в руки Минервы попадает некий артефакт, который превращает её в дикую, кровожадную и неуправляемую женщину-кошку — Гепарду. Вне себя от ярости она начинает охоту за Лордом, по чьей вине и превратилась в монстра.


Страна: США, Великобритания, Испания
Студия: Atlas Entertainment, DC Comics, DC Entertainment
Продолжительность: 02:31:05
Перевод: Любительский многоголосый | DuoWave

Файл
Кодек: x.264
Качество: WEB-DL 720p | L | IMAX Edition
Видео: MPEG-4 AVC, 4000 Kбит/с, 1280x688, 23.976 кадр/с
Аудио #1: Русский (АС3, 2 ch, 192 Кбит/с, 48.0 KHz) Любительский (многоголосый, закадровый) DuoWave
Аудио #2: Английский (E-AC3 JOC, 6 ch, 768 Кбит/с, 48.0 KHz)
Субтитры: Русские (Full (FOCS), английские
► Без Рекламы!
Трейлер | Семпл
Источник: Wonder.Woman.1984.2020.IMAX.1080p.AMZN.WEB-DL.DDP5.1.Atmos.x264-NTG
General
Unique ID : 252232197594076592091796990936953983205 (0xBDC2277B84E896BA9526D46984E510E5)
Complete name : Wonder.Woman.1984.2020.AMZN.WEB-DL.720p.mkv
Format : Matroska
Format version : Version 4
File size : 5.15 GiB
Duration : 2 h 31 min
Overall bit rate : 4 880 kb/s
Encoded date : UTC 2020-12-27 07:37:34
Writing application : mkvmerge v7.1.0 ('Good Love') 64bit built on Jul 27 2014 13:06:55
Writing library : libebml v1.3.0 + libmatroska v1.4.1

Video
ID : 1
Format : AVC
Format/Info : Advanced Video Codec
Format profile : [email protected]
Format settings : CABAC / 4 Ref Frames
Format settings, CABAC : Yes
Format settings, Reference fra : 4 frames
Codec ID : V_MPEG4/ISO/AVC
Duration : 2 h 31 min
Bit rate mode : Constant
Bit rate : 4 000 kb/s
Width : 1 280 pixels
Height : 688 pixels
Display aspect ratio : 1.890
Original display aspect ratio : 1.85:1
Frame rate mode : Constant
Frame rate : 23.976 (24000/1001) FPS
Color space : YUV
Chroma subsampling : 4:2:0
Bit depth : 8 bits
Scan type : Progressive
Bits/(Pixel*Frame) : 0.189
Stream size : 4.13 GiB (80%)
Language : English
Default : Yes
Forced : No
Color range : Limited
Color primaries : BT.709
Transfer characteristics : BT.709
Matrix coefficients : BT.709

Audio #1
ID : 2
Format : AC-3
Format/Info : Audio Coding 3
Commercial name : Dolby Digital
Codec ID : A_AC3
Duration : 2 h 31 min
Bit rate mode : Constant
Bit rate : 192 kb/s
Channel(s) : 2 channels
Channel layout : L R
Sampling rate : 48.0 kHz
Frame rate : 31.250 FPS (1536 SPF)
Compression mode : Lossy
Stream size : 207 MiB (4%)
Title : DuoWave
Language : Russian
Service kind : Complete Main
Default : Yes
Forced : No

Audio #2
ID : 3
Format : E-AC-3 JOC
Format/Info : Enhanced AC-3 with Joint Object Coding
Commercial name : Dolby Digital Plus with Dolby Atmos
Codec ID : A_EAC3
Duration : 2 h 31 min
Bit rate mode : Constant
Bit rate : 768 kb/s
Channel(s) : 6 channels
Channel layout : L R C LFE Ls Rs
Sampling rate : 48.0 kHz
Frame rate : 31.250 FPS (1536 SPF)
Compression mode : Lossy
Delay relative to video : 24 ms
Stream size : 830 MiB (16%)
Language : English
Service kind : Complete Main
Default : No
Forced : No
Complexity index : 16
Number of dynamic objects : 15
Bed channel count : 1 channel
Bed channel configuration : LFE

Text #1
ID : 4
Format : UTF-8
Codec ID : S_TEXT/UTF8
Codec ID/Info : UTF-8 Plain Text
Duration : 2 h 26 min
Bit rate : 79 b/s
Count of elements : 1841
Stream size : 85.5 KiB (0%)
Title : Full - Focs
Language : Russian
Default : No
Forced : No

Text #2
ID : 5
Format : UTF-8
Codec ID : S_TEXT/UTF8
Codec ID/Info : UTF-8 Plain Text
Duration : 2 h 26 min
Bit rate : 46 b/s
Count of elements : 1862
Stream size : 50.2 KiB (0%)
Language : English
Default : No
Forced : No

Text #3
ID : 6
Format : UTF-8
Codec ID : S_TEXT/UTF8
Codec ID/Info : UTF-8 Plain Text
Duration : 2 h 26 min
Bit rate : 55 b/s
Count of elements : 2175
Stream size : 59.6 KiB (0%)
Title : SDH
Language : English
Default : No
Forced : No


Download
Для скачивания .torrent файлов необходима регистрация
Сайт не распространяет и не хранит электронные версии произведений, а лишь предоставляет доступ к создаваемому пользователями каталогу ссылок на торрент-файлы, которые содержат только списки хеш-сумм

Страница 1 из 1

Ответить на тему

   Похожие торренты   Торрент