Регистрация ·  Логин: Пароль: Запомнить   · Забыли пароль?




Ответить на тему
Статистика раздачи
Размер: 70.85 ГБ | Зарегистрирован: 10 дек 2020, 14:13 | .torrent скачан: 0 раз(а), DHT: [ 9 ] раз(а)
Сидеров: [ 63  | 0 байт/сек ]   Личеров: [ 252  | 0 байт/сек ]   DHT: [ 63 / 251 ]
Автор Сообщение

Модератор
Аватара пользователя

С нами: 7 лет 2 месяца
Сообщения: 10689
Откуда: Гуанчжоу
Китай

Сообщение 10 дек 2020, 14:13 

[Цитировать]

Золотая коллекция отечественных мультфильмов


Год выпуска: 1936-1999
Жанр: Мультфильм, кукольный, рисованный, детский, русская сказка, экранизация
Режиссер: Иван Иванов-Вано, Лев Атаманов, Роман Качанов ст., Фёдор Хитрук, Борис Степанцев, Инесса Ковалевская, Юрий Норштейн, Вячеслав Котёночкин, Леонид Кощеников, Леонид Зарубин, Ефрем Пружанский, Давид Чер

О фильме: Собственное собрание отечественных (преимущественно - советских) мультфильмов. Мультфильмы, которым неподвластно время, рассчитанные на любую аудиторию, на любой возраст.

Страна: СССР, Россия, Украина, Союзмультфильм, ТО "Экран", Киевнаучфильм, Свердловская киностудия, Пермьтелефильм

Продолжительность: 71:35:26

Файл
Кодек: h.264
Качество: DVDRip-AVC
Видео: MPEG-4 AVC,718x576, 720х576 (4:3), ~1900 kbps, 25 fps,0.184 bpp
Аудио: АС3, 6 ch, 448 Кбит/с, AC3, 1 ch, 192 Кбит/с
Язык: Русский

Релиз от: dixen18

General
Unique ID : 277704272973368681648779685069851944164 (0xD0EBE5C29590506D96A7F756CDF364E4)
Complete name : H:Золотая коллекция мультфильмовВозвращение блудного попугаяВыпуск 1 (1984).mkv
Format : Matroska
Format version : Version 4
File size : 173 MiB
Duration : 9 min 43 s
Overall bit rate : 2 482 kb/s
Writing application : XviD4PSP 7.0.466 DAILY
Writing library : Lavf57.71.100
ErrorDetectionType : Per level 1
ENCODING_INFO : DVD > MKV Пользовательский / MPEG2 > X264 VBR-2P 1900kbps SHQ / AC3 > COPY Безопасное / AC3 > COPY Безопасное

Video
ID : 1
Format : AVC
Format/Info : Advanced Video Codec
Format profile : [email protected]
Format settings : CABAC / 12 Ref Frames
Format settings, CABAC : Yes
Format settings, ReFrames : 12 frames
Codec ID : V_MPEG4/ISO/AVC
Duration : 9 min 43 s
Bit rate : 1 900 kb/s
Width : 718 pixels
Height : 576 pixels
Display aspect ratio : 4:3
Frame rate mode : Constant
Frame rate : 25.000 FPS
Color space : YUV
Chroma subsampling : 4:2:0
Bit depth : 8 bits
Scan type : Progressive
Bits/(Pixel*Frame) : 0.184
Stream size : 129 MiB (75%)
Writing library : x264 core 157 r2935 545de2f
Encoding settings : cabac=1 / ref=12 / deblock=1:0:0 / analyse=0x3:0x133 / me=umh / subme=10 / psy=1 / psy_rd=1.05:0.10 / mixed_ref=1 / me_range=16 / chroma_me=1 / trellis=2 / 8x8dct=1 / cqm=0 / deadzone=21,11 / fast_pskip=0 / chroma_qp_offset=-3 / threads=5 / lookahead_threads=1 / sliced_threads=0 / nr=0 / decimate=1 / interlaced=0 / bluray_compat=0 / constrained_intra=0 / bframes=8 / b_pyramid=2 / b_adapt=2 / b_bias=0 / direct=3 / weightb=1 / open_gop=0 / weightp=2 / keyint=250 / keyint_min=25 / scenecut=40 / intra_refresh=0 / rc_lookahead=60 / rc=2pass / mbtree=1 / bitrate=1900 / ratetol=1.0 / qcomp=0.70 / qpmin=3 / qpmax=69 / qpstep=4 / cplxblur=20.0 / qblur=0.5 / ip_ratio=1.40 / aq=2:1.00
Default : Yes
Forced : No
Color range : Limited

Audio #1
ID : 2
Format : AC-3
Format/Info : Audio Coding 3
Commercial name : Dolby Digital
Codec ID : A_AC3
Duration : 9 min 43 s
Bit rate mode : Constant
Bit rate : 448 kb/s
Channel(s) : 6 channels
Channel layout : L R C LFE Ls Rs
Sampling rate : 48.0 kHz
Frame rate : 31.250 FPS (1536 SPF)
Bit depth : 16 bits
Compression mode : Lossy
Stream size : 31.1 MiB (18%)
Language : Russian
Service kind : Complete Main
Default : Yes
Forced : No

Audio #2
ID : 3
Format : AC-3
Format/Info : Audio Coding 3
Commercial name : Dolby Digital
Codec ID : A_AC3
Duration : 9 min 43 s
Bit rate mode : Constant
Bit rate : 128 kb/s
Channel(s) : 1 channel
Channel layout : C
Sampling rate : 48.0 kHz
Frame rate : 31.250 FPS (1536 SPF)
Bit depth : 16 bits
Compression mode : Lossy
Stream size : 8.90 MiB (5%)
Language : Russian
Service kind : Complete Main
Default : No
Forced : No

Menu
00:00:00.000 : :Глава 1

Выпуски
Бременские музыканты
Великолепный Гоша
Веселая карусель (Без реставрации)
Винни Пух
Возвращение блудного попугая
Волшебник Изумрудного города
Доктор Айболит
Домовенок Кузя
Казаки
Кот Леопольд
Котенок по имени Гав
Крокодил Гена
Малыш и Карлсон
Мультфильмы Юрия Норштейна
Мумий Тролль
Ну Погоди
Осторожно, обезьянки!
Остров сокровищ
Пингвиненок Лоло
Приключения Капитана Врунгеля
Приключения поросенка Фунтика
Сказки маленького лисенка
Следствие ведут колобки
Три лягушонка
Трое из Простоквашино
Умка

Про спорт..
01. Необыкновенный матч (1955)
02. Старые знакомые (1956)
03. Шайбу! Шайбу!! (1964)
04. Матч-реванш (1968)
05. «Метеор» на ринге (1970)
06. Футбольные звезды (1974)
07. Талант и поклоники (1978)
08. В гостях у лета (1972)
09. Тихая поляна (1946)
10. Чемпион (1948)
11. Кто первый (1950)
12. Кто получит приз (1973)
13. Приходи на каток (1981)

Полнометражные мультфильмы
Аленький цветочек (1952)
Двенадцать месяцев (1956)
Заколдованный мальчик (1955)
Конек-горбунок (1975)
Левша (1964)
Маугли (1967—1971)
Незнайка на Луне (1997-1999)
Приключения Буратино (1959)
Снежная королева (1957)
Тайна третьей планеты (1981)
Чиполлино (1961)

Короткометражные мультфильмы
Басни Сергея Михалкова (1975)
Бобик в гостях у Барбоса (1977)
Большой секрет для маленькой компании (1979)
Большой Ух (1989)
В зоопарке — ремонт! (1987)
В некотором Царстве... (1957)
В Яранте горит огонь (1956)
Варежка (1967)
Верное средство (1982)
Весенние мелодии (1946)
Вовка-тренер (1979)
Волк и семеро козлят (1957)
Волшебная птица (1953)
Волшебное кольцо (1979)
Вот какой рассеянный (1975)
Вот так тигр (1963)
Гадкий утенок (1956)
Гирлянда из малышей (1983)
Голубая стрела (1985)
Гуси-лебеди (1949)
Девочка и медведь (1980)
Дед Мороз и лето (1969)
Дом для леопарда (1979)
Дюймовочка (1964)
Жадный Кузя (1969)
Зайчонок и муха (1977)
Записки пирата (1989)
Зимняя сказка (1981)
Золотая антилопа (1954)
Как грибы с горохом воевали (1977)
Как Иван-молодец царскую дочку спасал (1989)
Как котенку дом построили (1963)
Как лиса зайца догоняла (1979)
Как один мужик двух генералов прокормил (1965)
Как стать большим (1967)
Кентервильское привидение (1970)
Контакт (1978)
Котёнок с улицы Лизюкова (1988)
Кошкин дом (1958)
Краденое солнце (1978)
Крошка енот (1974)
Крылья, ноги и хвосты (1985)
Кто ж такие птички..(1978)
Кубик (1985)
Лебеди (1983)
Лесная хроника (1970)
Летучий корабль (1979)
Мальчик-с-пальчик (1977)
Мама для мамонтенка (1981)
Марусина карусель (1977)
Межа (1967)
Мешок яблок (1974)
Молодильные яблоки (1974)
Муха-Цокотуха (1976)
Непослущный котенок (1953)
Нехочуха (1986)
Новогодняя ночь (1948)
Опять двойка (1957)
Орлиное перо (1946)
Осенние корабли (1982)
Осьминожки (1976)
Падал прошлогодний снег (1983)
Петя и Красная Шапочка (1956)
Пиф-паф, ой-ой-ой (1980)
Пластилиновая ворона (1981)
Почему ушел котенок (1957)
Премудрый пескарь (1979)
Приключения Васи Куролесова (1981)
Раз ковбой, два ковбой (1981)
Рики-Тики-Тави (1965)
Рикэ Хохолок (1985)
Русалочка (1968)
Свинья-копилка (1963)
Серая Шейка (1948)
Серебряное копытце (1977)
Сестрица Аленушка и братец Иванушка (1953)
Сказка о золотом петушке (1967)
Сказка о мертвой царевне и семи богатырях (1951)
Сказка о попе и о работнике его Балде (1940)
Сказка о попе и о работнике его Балде (1956)
Сказка о попе и о работнике его Балде (1973)
Ска́зка о рыбаке́ и ры́бке (1950)
Сказка о солдате (1948)
Слон и муравей (1948)
Снеговик-почтовик (1955)
Снегурка (1969)
Стойкий оловянный солдатик (1976)
Трям! Здравствуйте! (1980)
Удивительная бочка (1982)
Федя Зайцев (1948)
Филипок (1982)
Цветик-семицветик (1948)
Чемпион (1948)
Черная курица (1975)
Чертенок с пушистым хвостом (1985)
Чьи в лесу шишки...(1965)
Шкатулка с секретом (1976)
Щелкунчик (1973)


Download
Для скачивания .torrent файлов необходима регистрация
Сайт не распространяет и не хранит электронные версии произведений, а лишь предоставляет доступ к создаваемому пользователями каталогу ссылок на торрент-файлы, которые содержат только списки хеш-сумм

Страница 1 из 1

Ответить на тему

   Похожие торренты   Торрент 




tracker_crontracker_cron