Регистрация ·  Логин: Пароль: Запомнить   · Забыли пароль?




Ответить на тему
Статистика раздачи
Размер: 10.54 ГБ | Зарегистрирован: 20 ноя 2020, 11:40 | .torrent скачан: 0 раз(а), DHT: [ 0 ] раз(а)
Сидеров: [ 0  | 0 байт/сек ]   Личеров: [ 0  | 0 байт/сек ]   DHT: [ 0 / 0 ]
Автор Сообщение

Модератор

С нами: 2 года 4 месяца
Сообщения: 3361
Россия

Сообщение 20 ноя 2020, 11:40 

[Цитировать]

Информация о фильме
Название: Заклятье. Дом 32
Оригинальное название: Malasaña 32
Год выхода: 2020
Жанр: Ужасы
Режиссер: Альберт Пинто
В ролях: Бегонья Варгас, Иван Маркос, Беа Сегура, Серджо Кастелланос, Хосе Луис Де Мадарьяга, Иван Ренедо, Конча Веласко, Хавьер Ботет, Мария Бальестерос, Роза Альварес

О фильме: Действие развернётся в 1970-х годах в Мадриде. Большая семья Ольмедо переезжает в столицу в надежде на лучшую жизнь. Герои заезжают в просторную квартиру, где осталась старая мебель от прежних жильцов. Но вскоре родственники осознают, что в их жилище обосновалось нечто жуткое. Сначала исчезает младший сын, за которым должна была присматривать дочь-подросток. Вскоре старший брат становится одержим девушкой, которую постоянно видит в окне, пока она передает странные послания, а дедушка начинает говорить странные вещи. И тогда становится очевидно, что без посторонней помощи не обойтись, но полиция не в силах разобраться в происходящем, а значит семье придется самостоятельно разгадывать тайну дома...



Выпущено: Испания, Франция / 4 Cats Pictures, Atresmedia Cine, Bambú Producciones
Продолжительность: 01:44:38
Озвучивание: Дублированное | iTunes

Файл
Формат: MKV
Качество: BDRip 1080p
Видео: MPEG-4 AVC, 13.4 Мb/s, 1920x804
Аудио #1: Russian: 48 kHz, AC3 Dolby Digital, 3/2 (L, C, R, l, r) + LFE ch, ~384 Kbps | iTunes
Аудио #2: Spanish: 48 kHz, AC3 Dolby Digital, 3/2 (L, C, R, l, r) + LFE ch, ~640 Kbps | Original
Субтитры: Russian (Forced), English (Full), Spanish (Full)
Дополнительно: Сохранены оригинальные чаптеры.

Релиз группы: &

Complete name: Malasana.32.2020.BDRip.1080p.ELEKTRI4KA.UNIONGANG.mkv
Format: Matroska
Format version: Version 4 / Version 2
File size: 10.5 GiB
Duration: 1 h 44 min
Overall bit rate: 14.4 Mb/s
Movie name: .ELEKTRI4KA.UNIONGANG.
Encoded date: UTC 2020-11-19 18:25:26
Writing application: mkvmerge v8.3.0 ('Over the Horizon') 64bit
Writing library: libebml v1.3.1 + libmatroska v1.4.2

Video
ID: 1
Format: AVC
Format/Info: Advanced Video Codec
Format profile: [email protected]
Format settings, CABAC: Yes
Format settings, Reference frames: 5 frames
Codec ID: V_MPEG4/ISO/AVC
Duration: 1 h 44 min
Bit rate: 13.4 Mb/s
Width: 1 920 pixels
Height: 804 pixels
Display aspect ratio: 2.40:1
Frame rate mode: Constant
Frame rate: 23.976 (24000/1001) FPS
Color space: YUV
Chroma subsampling: 4:2:0
Bit depth: 8 bits
Scan type: Progressive
Bits/(Pixel*Frame): 0.362
Stream size: 9.79 GiB (93%)
Writing library: x264 core 159 r2991+50 ce3db24 t_mod_New X64 encode by juanvilma
Encoding settings: cabac=1 / ref=5 / deblock=1:-3:-3 / analyse=0x3:0x113 / me=umh / subme=11 / psy=1 / fade_compensate=0.00 / psy_rd=1.10:0.00 / mixed_ref=1 / me_range=64 / chroma_me=1 / trellis=2 / 8x8dct=1 / cqm=0 / deadzone=21, 11 / fast_pskip=0 / chroma_qp_offset=-4 / threads=48 / lookahead_threads=4 / sliced_threads=0 / nr=0 / decimate=1 / interlaced=0 / bluray_compat=0 / constrained_intra=0 / fgo=0 / bframes=12 / b_pyramid=2 / b_adapt=2 / b_bias=0 / direct=3 / weightb=1 / open_gop=0 / weightp=2 / keyint=240 / keyint_min=23 / scenecut=40 / intra_refresh=0 / rc_lookahead=220 / rc=crf / mbtree=1 / crf=16.0000 / qcomp=0.75 / qpmin=0:0:0 / qpmax=69:69:69 / qpstep=4 / vbv_maxrate=62500 / vbv_bufsize=78125 / crf_max=0.0 / nal_hrd=none / filler=0 / ip_ratio=1.40 / aq=3:1.10 / aq-sensitivity=10.00 / aq-factor=1.00:1.00:1.00 / aq2=0 / aq3=0
Language: Spanish
Default: Yes
Forced: No
Color range: Limited
Color primaries: BT.709
Transfer characteristics: BT.709
Matrix coefficients: BT.709

Audio #1
ID: 2
Format: AC-3
Format/Info: Audio Coding 3
Mode extension: CM (complete main)
Format settings, Endianness: Big
Codec ID: A_AC3
Duration: 1 h 44 min
Bit rate mode: Constant
Bit rate: 384 kb/s
Channel(s): 6 channels
Channel positions: Front: L C R, Side: L R, LFE
Sampling rate: 48.0 kHz
Frame rate: 31.250 FPS (1536 spf)
Bit depth: 16 bits
Compression mode: Lossy
Stream size: 288 MiB (3%)
Title: DUB (iTunes)
Language: Russian
Default: Yes
Forced: No

Audio #2
ID: 3
Format: AC-3
Format/Info: Audio Coding 3
Mode extension: CM (complete main)
Format settings, Endianness: Big
Codec ID: A_AC3
Duration: 1 h 44 min
Bit rate mode: Constant
Bit rate: 640 kb/s
Channel(s): 6 channels
Channel positions: Front: L C R, Side: L R, LFE
Sampling rate: 48.0 kHz
Frame rate: 31.250 FPS (1536 spf)
Bit depth: 16 bits
Compression mode: Lossy
Stream size: 479 MiB (4%)
Title: Original
Language: Spanish
Default: No
Forced: No

Text #1
ID: 4
Format: UTF-8
Codec ID: S_TEXT/UTF8
Codec ID/Info: UTF-8 Plain Text
Duration: 1 h 17 min
Bit rate: 0 b/s
Count of elements: 18
Stream size: 502 Bytes (0%)
Title: Forced
Language: Russian
Default: Yes
Forced: No

Text #2
ID: 5
Format: UTF-8
Codec ID: S_TEXT/UTF8
Codec ID/Info: UTF-8 Plain Text
Duration: 1 h 42 min
Bit rate: 29 b/s
Count of elements: 798
Stream size: 22.5 KiB (0%)
Title: Full
Language: English
Default: No
Forced: No

Text #3
ID: 6
Format: UTF-8
Codec ID: S_TEXT/UTF8
Codec ID/Info: UTF-8 Plain Text
Duration: 1 h 42 min
Bit rate: 32 b/s
Count of elements: 798
Stream size: 24.8 KiB (0%)
Title: Full
Language: Spanish
Default: No
Forced: No

Menu
00:07:48.000: es:CapГ­tulo 1
00:12:24.000: es:CapГ­tulo 2
00:21:26.000: es:CapГ­tulo 3
00:28:36.000: es:CapГ­tulo 4
00:34:42.000: es:CapГ­tulo 5
00:39:14.000: es:CapГ­tulo 6
00:45:51.000: es:CapГ­tulo 7
00:52:19.000: es:CapГ­tulo 8
00:57:14.000: es:CapГ­tulo 9
01:03:17.000: es:CapГ­tulo 10
01:07:18.000: es:CapГ­tulo 11
01:12:52.000: es:CapГ­tulo 12
01:18:13.000: es:CapГ­tulo 13
01:23:51.000: es:CapГ­tulo 14
01:30:22.000: es:CapГ­tulo 15
01:39:16.000: es:CapГ­tulo 16
01:41:36.000: es:Creditos

Download
Для скачивания .torrent файлов необходима регистрация
Сайт не распространяет и не хранит электронные версии произведений, а лишь предоставляет доступ к создаваемому пользователями каталогу ссылок на торрент-файлы, которые содержат только списки хеш-сумм

Страница 1 из 1

Ответить на тему

   Похожие торренты   Торрент 




tracker_crontracker_cron