Регистрация ·  Логин: Пароль: Запомнить   · Забыли пароль?




Ответить на тему
Статистика раздачи
Размер: 43.91 ГБ | Зарегистрирован: 20 ноя 2020, 11:38 | .torrent скачан: 0 раз(а), DHT: [ 0 ] раз(а)
Сидеров: [ 0  | 0 байт/сек ]   Личеров: [ 0  | 0 байт/сек ]   DHT: [ 0 / 0 ]
Автор Сообщение

Модератор

С нами: 2 года 4 месяца
Сообщения: 3361
Россия

Сообщение 20 ноя 2020, 11:38 

[Цитировать]


Информация о фильме
Название: Гретель и Гензель
Оригинальное название: Gretel & Hansel
Год выхода: 2020
Жанр: Ужасы, фэнтези, триллер
Режиссер: Оз Перкинс
В ролях: София Лиллис, Сэмми Лики, Элис Крайдж, Джессика Де Гау, Чарльз Бабалола, Йен Кенни, Абдул Альшариф, Мануэль Помбо, Беатрикс Перкинс



О фильме: Новая версия старинной сказки братьев Гримм о зловещих приключениях брата и сестры в Очарованном лесу. В поисках еды голодные Грета и Гензель отправляются в лес, не подозревая, что им предстоит отведать обед дьявольской кухни и пройти все круги ада...

Страна: Ирландия, Канада, США, ЮАР
Студия: Automatik Entertainment, Orion Pictures, BRON Studios
Продолжительность: 01:27:20
Перевод: Дублированный | iTunes

Качество: BDRemux 2160p
Видео: 3840x2160 at 23.976 fps, MPEG-H HEVC HDR Video, 69100 kbps avg
Аудио #01: 48 kHz, AC3, 5.1, 384 Kbps | iTunes | RUS |
Аудио #02: 48 kHz, DTS-HD MA, 5.1, 2334 Kbps | Оригинал | ENG |
Субтитры: Русские (Full), английские



General
Unique ID : 123035774013195513652592985908294043008 (0x5C8FD401007AF2F7631A0E0110FDC580)
Complete name : D:Video111Gretel.and.Hansel.2020.BDREMUX.2160p.HDR.seleZen.mkv
Format : Matroska
Format version : Version 4
File size : 43.9 GiB
Duration : 1 h 27 min
Overall bit rate mode : Variable
Overall bit rate : 71.9 Mb/s
Movie name : Gretel and Hansel 2020 from селезень
Encoded date : UTC 2020-11-17 11:16:24
Writing application : mkvmerge v40.0.0 ('Old Town Road + Pony') 64-bit
Writing library : libebml v1.3.9 + libmatroska v1.5.2

Video
ID : 1
Format : HEVC
Format/Info : High Efficiency Video Coding
Format profile : Main [email protected]@High
HDR format : SMPTE ST 2094 App 4, Version 1, HDR10+ Profile B compatible
Codec ID : V_MPEGH/ISO/HEVC
Duration : 1 h 27 min
Bit rate : 69.1 Mb/s
Width : 3 840 pixels
Height : 2 160 pixels
Display aspect ratio : 16:9
Frame rate mode : Constant
Frame rate : 23.976 (24000/1001) FPS
Color space : YUV
Chroma subsampling : 4:2:0 (Type 2)
Bit depth : 10 bits
Bits/(Pixel*Frame) : 0.348
Stream size : 42.2 GiB (96%)
Language : English
Default : Yes
Forced : No
Color range : Limited
Color primaries : BT.2020
Transfer characteristics : PQ
Matrix coefficients : BT.2020 non-constant
Mastering display color pri : Display P3
Mastering display luminance : min: 0.0050 cd/m2, max: 1000 cd/m2
Maximum Content Light Level : 1000 cd/m2
Maximum Frame-Average Light : 400 cd/m2

Audio #1
ID : 2
Format : AC-3
Format/Info : Audio Coding 3
Commercial name : Dolby Digital
Codec ID : A_AC3
Duration : 1 h 27 min
Bit rate mode : Constant
Bit rate : 384 kb/s
Channel(s) : 6 channels
Channel layout : L R C LFE Ls Rs
Sampling rate : 48.0 kHz
Frame rate : 31.250 FPS (1536 SPF)
Compression mode : Lossy
Stream size : 240 MiB (1%)
Title : iTunes
Language : Russian
Service kind : Complete Main
Default : Yes
Forced : Yes

Audio #2
ID : 3
Format : DTS XLL
Format/Info : Digital Theater Systems
Commercial name : DTS-HD Master Audio
Codec ID : A_DTS
Duration : 1 h 27 min
Bit rate mode : Variable
Bit rate : 2 334 kb/s
Channel(s) : 6 channels
Channel layout : C L R Ls Rs LFE
Sampling rate : 48.0 kHz
Frame rate : 93.750 FPS (512 SPF)
Bit depth : 16 bits
Compression mode : Lossless
Stream size : 1.43 GiB (3%)
Title : Original
Language : English
Default : No
Forced : No

Text #1
ID : 4
Format : UTF-8
Codec ID : S_TEXT/UTF8
Codec ID/Info : UTF-8 Plain Text
Duration : 1 h 26 min
Bit rate : 65 b/s
Count of elements : 809
Stream size : 41.3 KiB (0%)
Title : Full
Language : Russian
Default : No
Forced : No

Text #2
ID : 5
Format : UTF-8
Codec ID : S_TEXT/UTF8
Codec ID/Info : UTF-8 Plain Text
Duration : 1 h 21 min
Bit rate : 41 b/s
Count of elements : 815
Stream size : 24.6 KiB (0%)
Title : Full
Language : English
Default : No
Forced : No

Menu
00:00:00.000 : en:Глава 01
00:07:09.638 : en:Глава 02
00:14:15.688 : en:Глава 03
00:21:47.598 : en:Глава 04
00:28:14.401 : en:Глава 05
00:36:35.402 : en:Глава 06
00:44:51.772 : en:Глава 07
00:52:16.925 : en:Глава 08
01:02:25.784 : en:Глава 09
01:10:40.736 : en:Глава 10
01:15:31.819 : en:Глава 11
01:19:11.163 : en:Глава 12
01:27:18.233 : en:Глава 13


Релиз: Присоединяйся к:


Download
Для скачивания .torrent файлов необходима регистрация
Сайт не распространяет и не хранит электронные версии произведений, а лишь предоставляет доступ к создаваемому пользователями каталогу ссылок на торрент-файлы, которые содержат только списки хеш-сумм

Страница 1 из 1

Ответить на тему

   Похожие торренты   Торрент 




tracker_crontracker_cron