Регистрация ·  Логин: Пароль: Запомнить   · Забыли пароль?




Ответить на тему
Статистика раздачи
Размер: 9.71 ГБ | Зарегистрирован: 15 ноя 2020, 16:36 | .torrent скачан: 0 раз(а), DHT: [ 1999 ] раз(а)
Сидеров: [ 109  | 0 байт/сек ]   Личеров: [ 12  | 0 байт/сек ]   DHT: [ 109 / 12 ]
Автор Сообщение

Модератор

С нами: 2 года 4 месяца
Сообщения: 3361
Россия

Сообщение 15 ноя 2020, 16:36 

[Цитировать]

Информация о фильме
Название: Ассистент звезды
Оригинальное название: The High Note
Год выхода: 2020
Жанр: Драма, мелодрама, музыка
Режиссер: Ниша Ганатра
В ролях: Дакота Джонсон, Трэйси Эллис Росс, Келвин Харрисон, Айс Кьюб, Зои Чао, Джун Рафаэль, Билл Пуллман, Эдди Иззард, Дениз Акдениз, Юджин Кордеро, Марк Ивэн Джексон

О фильме: С самого детства музыка играла важную роль в жизни Мэгги, и вот уже три года девушка работает личным ассистентом одного их своих кумиров - певицы Грэйс Дэвис. Та без своей помощницы как без рук и, хотя находится на излёте карьеры, зачастую ведёт себя как заправская дива. Сама же Мэгги внезапно понимает, что всю жизнь хотела заниматься продюсированием музыки, и когда судьба случайно сводит её с начинающим певцом, девушка представляется ему продюсером и, не сказав Грэйс, начинает с ним работать.



Выпущено: США, Великобритания, Китай / Perfect World (Beijing) Pictures Co., Working Title Films
Продолжительность: 01:52:58
Озвучивание: Дублированное | Лицензия

Файл
Формат: MKV
Качество: BDRip 1080p
Видео: MPEG-4 AVC, 11.0 Mb/s, 1920x804
Аудио #1: Russian: 48 kHz, AC3 Dolby Digital, 3/2 (L, C, R, l, r) + LFE ch, ~640 Kbps | Лицензия
Аудио #2: English: 48 kHz, AC3 Dolby Digital, 3/2 (L, C, R, l, r) + LFE ch, ~640 Kbps | Original
Субтитры: English
Дополнительно: Сохранены оригинальные чаптеры.

Complete name: The High Note.2020.D.BDRip.1O8Op.mkv
Format: Matroska
Format version: Version 4 / Version 2
File size: 9.71 GiB
Duration: 1 h 52 min
Overall bit rate: 12.3 Mb/s
Encoded date: UTC 2020-10-25 17:35:35
Writing application: mkvmerge v42.0.0 ('Overtime') 32-bit
Writing library: libebml v1.3.10 + libmatroska v1.5.2
Video
ID: 1
Format: AVC
Format/Info: Advanced Video Codec
Format profile: [email protected]
Format settings, CABAC: Yes
Format settings, Reference frames: 5 frames
Codec ID: V_MPEG4/ISO/AVC
Duration: 1 h 52 min
Bit rate: 11.0 Mb/s
Width: 1 920 pixels
Height: 804 pixels
Display aspect ratio: 2.40:1
Frame rate mode: Constant
Frame rate: 23.976 (24000/1001) FPS
Color space: YUV
Chroma subsampling: 4:2:0
Bit depth: 8 bits
Scan type: Progressive
Bits/(Pixel*Frame): 0.298
Stream size: 8.70 GiB (90%)
Writing library: x264 core 160 r3000 33f9e14
Encoding settings: cabac=1 / ref=5 / deblock=1:-3:-3 / analyse=0x3:0x133 / me=umh / subme=10 / psy=1 / psy_rd=1.00:0.00 / mixed_ref=1 / me_range=48 / chroma_me=1 / trellis=2 / 8x8dct=1 / cqm=0 / deadzone=21, 11 / fast_pskip=0 / chroma_qp_offset=-2 / threads=48 / lookahead_threads=6 / sliced_threads=0 / nr=0 / decimate=0 / interlaced=0 / bluray_compat=0 / constrained_intra=0 / bframes=8 / b_pyramid=2 / b_adapt=2 / b_bias=0 / direct=3 / weightb=1 / open_gop=0 / weightp=2 / keyint=250 / keyint_min=23 / scenecut=40 / intra_refresh=0 / rc_lookahead=60 / rc=crf / mbtree=0 / crf=15.5 / qcomp=0.60 / qpmin=0 / qpmax=69 / qpstep=4 / vbv_maxrate=62500 / vbv_bufsize=78125 / crf_max=0.0 / nal_hrd=none / filler=0 / ip_ratio=1.35 / pb_ratio=1.25 / aq=3:0.85 / zones=125, 406, crf=14.5/58841, 59835, crf=14
Language: English
Default: Yes
Forced: No
Audio #1
ID: 2
Format: AC-3
Format/Info: Audio Coding 3
Mode extension: CM (complete main)
Format settings, Endianness: Big
Codec ID: A_AC3
Duration: 1 h 52 min
Bit rate mode: Constant
Bit rate: 640 kb/s
Channel(s): 6 channels
Channel positions: Front: L C R, Side: L R, LFE
Sampling rate: 48.0 kHz
Frame rate: 31.250 FPS (1536 spf)
Bit depth: 16 bits
Compression mode: Lossy
Delay relative to video: 2 ms
Stream size: 517 MiB (5%)
Title: Licenzija
Language: Russian
Default: Yes
Forced: Yes
Audio #2
ID: 3
Format: AC-3
Format/Info: Audio Coding 3
Mode extension: CM (complete main)
Format settings, Endianness: Big
Codec ID: A_AC3
Duration: 1 h 52 min
Bit rate mode: Constant
Bit rate: 640 kb/s
Channel(s): 6 channels
Channel positions: Front: L C R, Side: L R, LFE
Sampling rate: 48.0 kHz
Frame rate: 31.250 FPS (1536 spf)
Bit depth: 16 bits
Compression mode: Lossy
Stream size: 517 MiB (5%)
Language: English
Default: No
Forced: No
Text
ID: 4
Format: UTF-8
Codec ID: S_TEXT/UTF8
Codec ID/Info: UTF-8 Plain Text
Duration: 1 h 52 min
Bit rate: 81 b/s
Count of elements: 2061
Stream size: 67.2 KiB (0%)
Language: English
Default: No
Forced: No
Menu
00:00:00.000: en:00:00:00.000
00:05:26.576: en:00:05:26.576
00:10:56.489: en:00:10:56.489
00:17:38.975: en:00:17:38.975
00:24:26.757: en:00:24:26.757
00:30:27.951: en:00:30:27.951
00:36:54.129: en:00:36:54.129
00:40:24.631: en:00:40:24.631
00:45:30.937: en:00:45:30.937
00:50:39.245: en:00:50:39.245
00:55:39.002: en:00:55:39.002
01:01:54.586: en:01:01:54.586
01:07:11.319: en:01:07:11.319
01:12:34.684: en:01:12:34.684
01:18:56.231: en:01:18:56.231
01:23:55.155: en:01:23:55.155
01:28:39.356: en:01:28:39.356
01:33:18.927: en:01:33:18.927
01:41:49.979: en:01:41:49.979
01:46:15.744: en:01:46:15.744

Download
Для скачивания .torrent файлов необходима регистрация
Сайт не распространяет и не хранит электронные версии произведений, а лишь предоставляет доступ к создаваемому пользователями каталогу ссылок на торрент-файлы, которые содержат только списки хеш-сумм

Страница 1 из 1

Ответить на тему

   Похожие торренты   Торрент 




tracker_crontracker_cron