Регистрация ·  Логин: Пароль: Запомнить   · Забыли пароль?




Ответить на тему
Статистика раздачи
Размер: 6.74 ГБ | Зарегистрирован: 15 ноя 2020, 16:35 | .torrent скачан: 0 раз(а), DHT: [ 497 ] раз(а)
Сидеров: [ 133  | 0 байт/сек ]   Личеров: [ 1  | 0 байт/сек ]   DHT: [ 133 / 1 ]
Автор Сообщение

Модератор

С нами: 2 года 4 месяца
Сообщения: 3361
Россия

Сообщение 15 ноя 2020, 16:35 

[Цитировать]


Информация о фильме
Название: Ведьмы
Оригинальное название: The Witches
Год выхода: 2020
Жанр: Фэнтези, комедия, детектив, приключения, семейный
Режиссер: Роберт Земекис
В ролях: Энн Хэтэуэй, Октавия Спенсер, Стэнли Туччи, Крис Рок, Коди-Лей Истик, Чарльз Эдвардс, Моргана Робинсон, Джазир Бруно, Евгения Карузо, Саймон Маньонда

О фильме: Ведьмы существуют, и они среди нас! Знаменитую книгу Даля заново откроют для современных зрителей. Визуально инновационные «Ведьмы» Земекиса расскажут полную мрачного юмора и в то же время трогательную историю юного сироты. В конце 1967 года мальчик переезжает к своей любимой бабушке в Демополис, сельский городок в Алабаме. Там они случайно сталкиваются с обманчиво обаятельными и дьявольски коварными ведьмами, поэтому бабуля мудро увозит нашего юного героя на роскошный морской курорт. Увы, они приезжают туда ровно тогда, когда Величайшая Самая Главная Ведьма собирает – конечно же, тайно – последовательниц со всего света, чтобы воплотить свои страшные злодейские планы.



Страна: Мексика, США
Студия: Warner Bros., ImageMovers, Double Dare You
Продолжительность: 01:44:12
Перевод: Профессиональный многоголосый, любительский многоголосый

Файл
Кодек: MPEG-4 AVC
Качество: WEB-DL 1080p
Видео: 8228 Кбит/с, 1920x816, 23.976 кадр/с
Звук:
Аудио #1: AC3, 48 Гц, 448 Кбит/сек, 6 ch | MVO | HDRezka Studio
Аудио #2: AC3, 48 Гц, 192 Кбит/сек, 2 ch | MVO | @[email protected]
Аудио #3: AC3, 48 Гц, 384 Кбит/сек, 6 ch | Английский
Субтитры: Русские (форс), английские


Общее
Уникальный идентификатор : 273384148752056036189627061218074134677 (0xCDABDF30EC05BF9772F358B29F0F8895)
Полное имя : D:ТоррентыThe.Witches.2020.2020.1080p.HMAX.WEBRip.DD5.1.x264-MZABIThe.Witches.2020.RU.ENG.x264.WEB-DL-1080p-MediaBit.mkv
Формат : Matroska
Версия формата : Version 4
Размер файла : 6,74 Гбайт
Продолжительность : 1 ч. 44 м.
Режим общего битрейта : Переменный
Общий поток : 9 255 Кбит/сек
Название фильма : Ведьмы / The Witches (2020)
Дата кодирования : UTC 2020-10-25 00:57:57
Программа кодирования : mkvmerge v25.0.0 ('Prog Noir') 64-bit
Библиотека кодирования : libebml v1.3.6 + libmatroska v1.4.9
Attachments : The-Witches.2020م.jpg

Видео
Идентификатор : 1
Формат : AVC
Формат/Информация : Advanced Video Codec
Профиль формата : [email protected]
Настройки формата : CABAC / 4 Ref Frames
Параметр CABAC формата : Да
Параметр RefFrames формата : 4 кадра
Идентификатор кодека : V_MPEG4/ISO/AVC
Продолжительность : 1 ч. 44 м.
Вид битрейта : Переменный
Битрейт : 8 228 Кбит/сек
Максимальный битрейт : 12,4 Мбит/сек
Ширина : 1 920 пикселей
Высота : 816 пикселей
Соотношение сторон : 2,35:1
Режим частоты кадров : Постоянный
Частота кадров : 23,976 (24000/1001) кадра/сек
Цветовое пространство : YUV
Субдискретизация насыщенности : 4:2:0
Битовая глубина : 8 бит
Тип развёртки : Прогрессивная
Бит/(Пиксели*Кадры) : 0.219
Размер потока : 5,99 Гбайт (89%)
Язык : English
Default : Да
Forced : Нет
Цветовой диапазон : Limited
Основные цвета : BT.709
Характеристики трансфера : BT.709
Коэффициенты матрицы : BT.709

Аудио #1
Идентификатор : 2
Формат : AC-3
Формат/Информация : Audio Coding 3
Коммерческое название : Dolby Digital
Идентификатор кодека : A_AC3
Продолжительность : 1 ч. 44 м.
Вид битрейта : Постоянный
Битрейт : 448 Кбит/сек
Каналы : 6 каналов
Channel layout : L R C LFE Ls Rs
Частота : 48,0 КГц
Частота кадров : 31,250 кадров/сек (1536 SPF)
Метод сжатия : С потерями
Размер потока : 334 Мбайт (5%)
Заголовок : MVO [HDRezka Studio]
Язык : Russian
Service kind : Complete Main
Default : Да
Forced : Нет

Аудио #2
Идентификатор : 3
Формат : AC-3
Формат/Информация : Audio Coding 3
Коммерческое название : Dolby Digital
Идентификатор кодека : A_AC3
Продолжительность : 1 ч. 44 м.
Вид битрейта : Постоянный
Битрейт : 192 Кбит/сек
Каналы : 2 канала
Channel layout : L R
Частота : 48,0 КГц
Частота кадров : 31,250 кадров/сек (1536 SPF)
Метод сжатия : С потерями
Размер потока : 143 Мбайт (2%)
Заголовок : MVO [@[email protected]]
Язык : Russian
Service kind : Complete Main
Default : Нет
Forced : Нет

Аудио #3
Идентификатор : 4
Формат : AC-3
Формат/Информация : Audio Coding 3
Коммерческое название : Dolby Digital
Идентификатор кодека : A_AC3
Продолжительность : 1 ч. 44 м.
Вид битрейта : Постоянный
Битрейт : 384 Кбит/сек
Каналы : 6 каналов
Channel layout : L R C LFE Ls Rs
Частота : 48,0 КГц
Частота кадров : 31,250 кадров/сек (1536 SPF)
Метод сжатия : С потерями
Размер потока : 286 Мбайт (4%)
Заголовок : English
Язык : English
Service kind : Complete Main
Default : Нет
Forced : Нет

Текст #1
Идентификатор : 5
Формат : UTF-8
Идентификатор кодека : S_TEXT/UTF8
Идентификатор кодека/Информация : UTF-8 Plain Text
Продолжительность : 1 ч. 31 м.
Битрейт : 2 бит/сек
Count of elements : 19
Размер потока : 1,42 Кбайт (0%)
Язык : Russian
Default : Да
Forced : Нет

Текст #2
Идентификатор : 6
Формат : UTF-8
Идентификатор кодека : S_TEXT/UTF8
Идентификатор кодека/Информация : UTF-8 Plain Text
Продолжительность : 1 ч. 36 м.
Битрейт : 58 бит/сек
Count of elements : 1537
Размер потока : 41,0 Кбайт (0%)
Заголовок : English
Язык : English
Default : Нет
Forced : Нет

Текст #3
Идентификатор : 7
Формат : UTF-8
Идентификатор кодека : S_TEXT/UTF8
Идентификатор кодека/Информация : UTF-8 Plain Text
Продолжительность : 1 ч. 36 м.
Битрейт : 69 бит/сек
Count of elements : 1788
Размер потока : 49,0 Кбайт (0%)
Заголовок : English [SDH]
Язык : English
Default : Нет
Forced : Нет


Релиз от:

Download
Для скачивания .torrent файлов необходима регистрация
Сайт не распространяет и не хранит электронные версии произведений, а лишь предоставляет доступ к создаваемому пользователями каталогу ссылок на торрент-файлы, которые содержат только списки хеш-сумм

Страница 1 из 1

Ответить на тему

   Похожие торренты   Торрент 




tracker_crontracker_cron