Регистрация ·  Логин: Пароль: Запомнить   · Забыли пароль?




Ответить на тему
Статистика раздачи
Размер: 13.75 ГБ | Зарегистрирован: 15 ноя 2020, 16:35 | .torrent скачан: 0 раз(а), DHT: [ 328 ] раз(а)
Сидеров: [ 8  | 0 байт/сек ]   Личеров: [ 1  | 0 байт/сек ]   DHT: [ 8 / 1 ]
Автор Сообщение

Модератор

С нами: 2 года 4 месяца
Сообщения: 3361
Россия

Сообщение 15 ноя 2020, 16:35 

[Цитировать]


Информация о фильме
Название: Девушка из долины
Оригинальное название: Valley Girl
Год выхода: 2020
Жанр: Мюзикл, мелодрама, комедия
Режиссер: Рэйчел Голденберг
В ролях: Джош Уайтхаус, Мэй Уитман, Хлоя Беннет, Джессика Рот, Пейтон Лист (II), Логан Пол, Эллин Рэйчел, Джош Фэйдем, Джесси Эннис, Эшли Мюррэй

О фильме:
Руби, только что расставшейся со своим парнем, ее мама Джули рассказывает историю своей юности, пришедшейся на бурные 1980-е. Именно тогда Джули, приличная девочка из хорошей семьи, переживающая кризис отношений с высокомерным спортсменом Микки, неожиданно встречает на пляже Лос-Анджелеса музыканта-панка Рэнди, в которого девушка влюбляется, несмотря на то, что и друзья, и родители выступают против этих чувств.



Страна: США
Студия: Metro-Goldwyn-Mayer (MGM), Sneak Preview Productions
Продолжительность: 01:42:45
Перевод: Профессиональный многоголосый (Greb & Creative по заказу море тв)

Файл
Кодек: MPEG-4 AVC
Качество: BDRip 1080p
Видео: MPEG-4 AVC, 17300 Кбит/с, 1920x1038, 23.976 кадр/с
Звук: Русский (AC3, 2 ch, 192 Кбит/с), английский (DTS, 6 ch, 1535 Кбит/c)
Субтитры: Английские

Релиз от:

Реклама, любого вида, отсутствует.

Complete name : Valley.Girl.2020.BDRip.(1080p).ExKinoRay.mkv
Format : Matroska
Format version : Version 2
File size : 13.7 GiB
Duration : 1 h 42 min
Overall bit rate : 19.2 Mb/s
Encoded date : UTC 2020-10-24 22:22:59
Writing application : mkvmerge v5.8.0 ('No Sleep / Pillow') built on Sep 2 2012 15:37:04
Writing library : libebml v1.2.3 + libmatroska v1.3.0

Video
ID : 1
Format : AVC
Format/Info : Advanced Video Codec
Format profile : [email protected]
Format settings : CABAC / 4 Ref Frames
Format settings, CABAC : Yes
Format settings, Reference : 4 frames
Codec ID : V_MPEG4/ISO/AVC
Duration : 1 h 42 min
Bit rate : 17.1 Mb/s
Width : 1 920 pixels
Height : 1 038 pixels
Display aspect ratio : 1.85:1
Frame rate mode : Constant
Frame rate : 23.976 (24000/1001) FPS
Color space : YUV
Chroma subsampling : 4:2:0
Bit depth : 8 bits
Scan type : Progressive
Bits/(Pixel*Frame) : 0.357
Stream size : 12.3 GiB (89%)
Writing library : x264 core 157 r2938 2b00a84
Encoding settings : cabac=1 / ref=4 / deblock=1:-3:-3 / analyse=0x3:0x133 / me=umh / subme=10 / psy=1 / psy_rd=1.05:0.00 / mixed_ref=1 / me_range=32 / chroma_me=1 / trellis=2 / 8x8dct=1 / cqm=0 / deadzone=21,11 / fast_pskip=0 / chroma_qp_offset=-2 / threads=12 / lookahead_threads=2 / sliced_threads=0 / nr=0 / decimate=0 / interlaced=0 / bluray_compat=0 / constrained_intra=0 / bframes=8 / b_pyramid=2 / b_adapt=2 / b_bias=0 / direct=3 / weightb=1 / open_gop=0 / weightp=2 / keyint=250 / keyint_min=24 / scenecut=40 / intra_refresh=0 / rc_lookahead=250 / rc=crf / mbtree=0 / crf=16.8 / qcomp=0.60 / qpmin=0 / qpmax=69 / qpstep=4 / vbv_maxrate=62500 / vbv_bufsize=78125 / crf_max=0.0 / nal_hrd=none / filler=0 / ip_ratio=1.30 / pb_ratio=1.20 / aq=3:0.80
Language : English
Default : Yes
Forced : No
Color range : Limited
Color primaries : BT.709
Matrix coefficients : BT.709

Audio #1
ID : 2
Format : AC-3
Format/Info : Audio Coding 3
Commercial name : Dolby Digital
Codec ID : A_AC3
Duration : 1 h 42 min
Bit rate mode : Constant
Bit rate : 192 kb/s
Channel(s) : 2 channels
Channel layout : L R
Sampling rate : 48.0 kHz
Frame rate : 31.250 FPS (1536 SPF)
Compression mode : Lossy
Stream size : 141 MiB (1%)
Language : Russian
Service kind : Complete Main
Default : Yes
Forced : No

Audio #2
ID : 3
Format : DTS
Format/Info : Digital Theater Systems
Codec ID : A_DTS
Duration : 1 h 42 min
Bit rate mode : Constant
Bit rate : 1 509 kb/s
Channel(s) : 6 channels
Channel layout : C L R Ls Rs LFE
Sampling rate : 48.0 kHz
Frame rate : 93.750 FPS (512 SPF)
Bit depth : 24 bits
Compression mode : Lossy
Stream size : 1.08 GiB (8%)
Language : English
Default : No
Forced : No

Text
ID : 4
Format : UTF-8
Codec ID : S_TEXT/UTF8
Codec ID/Info : UTF-8 Plain Text
Language : English
Default : No
Forced : No

Menu
00:00:00.000 : en:Chapter 01
00:09:45.293 : en:Chapter 02
00:15:58.916 : en:Chapter 03
00:22:00.611 : en:Chapter 04
00:27:38.448 : en:Chapter 05
00:36:31.898 : en:Chapter 06
00:45:39.528 : en:Chapter 07
00:53:35.712 : en:Chapter 08
01:01:53.251 : en:Chapter 09
01:09:42.512 : en:Chapter 10
01:18:54.730 : en:Chapter 11
01:24:22.724 : en:Chapter 12
01:31:10.465 : en:Chapter 13
01:36:36.708 : en:Chapter 14


Download
Для скачивания .torrent файлов необходима регистрация
Сайт не распространяет и не хранит электронные версии произведений, а лишь предоставляет доступ к создаваемому пользователями каталогу ссылок на торрент-файлы, которые содержат только списки хеш-сумм

Страница 1 из 1

Ответить на тему

   Похожие торренты   Торрент 




tracker_crontracker_cron