Регистрация ·  Логин: Пароль: Запомнить   · Забыли пароль?




Ответить на тему
Статистика раздачи
Размер: 9.49 ГБ | Зарегистрирован: 15 ноя 2020, 16:35 | .torrent скачан: 0 раз(а), DHT: [ 0 ] раз(а)
Сидеров: [ 0  | 0 байт/сек ]   Личеров: [ 0  | 0 байт/сек ]   DHT: [ 0 / 0 ]
Автор Сообщение

Модератор

С нами: 2 года 4 месяца
Сообщения: 3361
Россия

Сообщение 15 ноя 2020, 16:35 

[Цитировать]


Информация о фильме
Название: Борат 2
Оригинальное название: Borat Subsequent Moviefilm
Год выхода: 2020
Жанр: Комедия
Режиссер: Джейсон Уолинер
В ролях: Саша Барон Коэн, Мария Бакалова, Николета Чобану, Рудольф В. Джулиани, Луэнелль, Майк Пенс

О фильме:
Сюжетная линия фильма «Борат 2» продолжает историю знаменитого казахского репортера Бората Сагдиева, который после прошлых своих похождений стал настоящей звездой. Теперь ему проблематично брать интервью у известных личностей, так как и сам он далеко не рядовой гражданин, и постоянно привлекает внимание прохожих. Как же тут охотиться за очередным сюжетом? Выход из ситуации Борат находит быстро – он будет маскироваться, выдавая себя за других людей. Переодевшись репортер отправляется в США, где его ждут встречи с самыми известными политическими деятелями, представителями эстрады и кино, и никто из них не будет знать, с кем ведется общение. В путешествие Борат возьмет свою дочь, которая считает папу настоящим героем. Вместе им придется столкнуться с массой нелепых ситуаций и показать, что прославленному журналисту даже коронавирус не помеха.


Страна: Великобритания, США
Студия: Four by Two Films
Продолжительность: 01:36:04
Перевод: Любительский многоголосый | @[email protected]| by_maksciganov

Файл
Кодек: AVC
Качество: WEB-DL 1080p | AMZN
Видео: MPEG-4 AVC, 13.3 Mбит/с, 1920x1080, 23.976 кадр/с
Аудио #1: Русский (АС3, 2 ch, 192 Кбит/с, 48.0 KHz) Любительский (многоголосый, закадровый) @[email protected]
Аудио #2: Английский (E-АС3, 6 ch, 640 Кбит/с, 48.0 KHz)
Субтитры: Русские (Full), английские, испанские, французские, немецкие, итальянские, португальские | Amazon
► Без Рекламы!
Трейлер
Источник: Borat.Subsequent.Moviefilm.2020.1080p.AMZN.WEB.DDP5.1.x264-NTb
General
Unique ID : 212939913212797036372957131998308909609 (0xA032BC4B1D9E00FDA289B0F8632CC229)
Complete name : Borat.Subsequent.Moviefilm.2020.AMZN.WEB-DL.1080p.mkv
Format : Matroska
Format version : Version 4
File size : 9.49 GiB
Duration : 1 h 36 min
Overall bit rate : 14.1 Mb/s
Encoded date : UTC 2020-10-24 20:30:18
Writing application : mkvmerge v7.1.0 ('Good Love') 64bit built on Jul 27 2014 13:06:55
Writing library : libebml v1.3.0 + libmatroska v1.4.1

Video
ID : 1
Format : AVC
Format/Info : Advanced Video Codec
Format profile : [email protected]
Format settings : CABAC / 4 Ref Frames
Format settings, CABAC : Yes
Format settings, Reference fra : 4 frames
Codec ID : V_MPEG4/ISO/AVC
Duration : 1 h 36 min
Bit rate : 13.3 Mb/s
Width : 1 920 pixels
Height : 1 080 pixels
Display aspect ratio : 16:9
Frame rate mode : Constant
Frame rate : 23.976 (24000/1001) FPS
Color space : YUV
Chroma subsampling : 4:2:0
Bit depth : 8 bits
Scan type : Progressive
Bits/(Pixel*Frame) : 0.268
Stream size : 8.93 GiB (94%)
Writing library : x264 core 161 r3015+58M 4de0912 devel [(8 & 10)[email protected] X86_64]
Encoding settings : cabac=1 / ref=4 / deblock=1:-3:-3 / analyse=0x3:0x133 / me=umh / subme=10 / psy=1 / fade_compensate=0.00 / psy_rd=1.00:0.15 / mixed_ref=1 / me_range=48 / chroma_me=1 / trellis=2 / 8x8dct=1 / cqm=0 / deadzone=21,11 / fast_pskip=0 / chroma_qp_offset=-3 / threads=18 / lookahead_threads=3 / sliced_threads=0 / nr=0 / decimate=0 / interlaced=0 / bluray_compat=0 / constrained_intra=0 / fgo=0 / bframes=8 / b_pyramid=2 / b_adapt=2 / b_bias=0 / direct=3 / weightb=1 / open_gop=0 / weightp=2 / keyint=250 / keyint_min=23 / scenecut=40 / intra_refresh=0 / rc=crf / mbtree=0 / crf=17.0000 / qcomp=0.60 / qpmin=0:0:0 / qpmax=69:69:69 / qpstep=4 / ip_ratio=1.30 / pb_ratio=1.20 / aq=3:0.80 / aq-sensitivity=10.00 / aq-factor=1.00:1.00:1.00 / aq2=0 / aq3=0
Language : English
Default : Yes
Forced : No

Audio #1
ID : 2
Format : AC-3
Format/Info : Audio Coding 3
Commercial name : Dolby Digital
Codec ID : A_AC3
Duration : 1 h 36 min
Bit rate mode : Constant
Bit rate : 192 kb/s
Channel(s) : 2 channels
Channel layout : L R
Sampling rate : 48.0 kHz
Frame rate : 31.250 FPS (1536 SPF)
Compression mode : Lossy
Stream size : 132 MiB (1%)
Title : MVO | @[email protected]
Language : Russian
Service kind : Complete Main
Default : Yes
Forced : No

Audio #2
ID : 3
Format : E-AC-3
Format/Info : Enhanced AC-3
Commercial name : Dolby Digital Plus
Codec ID : A_EAC3
Duration : 1 h 36 min
Bit rate mode : Constant
Bit rate : 640 kb/s
Channel(s) : 6 channels
Channel layout : L R C LFE Ls Rs
Sampling rate : 48.0 kHz
Frame rate : 31.250 FPS (1536 SPF)
Compression mode : Lossy
Stream size : 440 MiB (5%)
Language : English
Service kind : Complete Main
Default : No
Forced : No

Text #1
ID : 4
Format : UTF-8
Codec ID : S_TEXT/UTF8
Codec ID/Info : UTF-8 Plain Text
Duration : 1 h 35 min
Bit rate : 111 b/s
Count of elements : 1549
Stream size : 77.9 KiB (0%)
Language : Russian
Default : No
Forced : No

Text #2
ID : 5
Format : UTF-8
Codec ID : S_TEXT/UTF8
Codec ID/Info : UTF-8 Plain Text
Duration : 1 h 28 min
Bit rate : 9 b/s
Count of elements : 263
Stream size : 6.41 KiB (0%)
Title : Forced
Language : English
Default : No
Forced : No

Text #3
ID : 6
Format : UTF-8
Codec ID : S_TEXT/UTF8
Codec ID/Info : UTF-8 Plain Text
Duration : 1 h 35 min
Bit rate : 86 b/s
Count of elements : 1953
Stream size : 60.7 KiB (0%)
Title : SDH
Language : English
Default : No
Forced : No

Text #4
ID : 7
Format : UTF-8
Codec ID : S_TEXT/UTF8
Codec ID/Info : UTF-8 Plain Text
Duration : 1 h 35 min
Bit rate : 71 b/s
Count of elements : 1281
Stream size : 50.3 KiB (0%)
Language : German
Default : No
Forced : No

Text #5
ID : 8
Format : UTF-8
Codec ID : S_TEXT/UTF8
Codec ID/Info : UTF-8 Plain Text
Duration : 1 h 35 min
Bit rate : 70 b/s
Count of elements : 1536
Stream size : 49.3 KiB (0%)
Language : French
Default : No
Forced : No

Text #6
ID : 9
Format : UTF-8
Codec ID : S_TEXT/UTF8
Codec ID/Info : UTF-8 Plain Text
Duration : 1 h 35 min
Bit rate : 68 b/s
Count of elements : 1507
Stream size : 47.9 KiB (0%)
Title : España
Language : Spanish
Default : No
Forced : No

Text #7
ID : 10
Format : UTF-8
Codec ID : S_TEXT/UTF8
Codec ID/Info : UTF-8 Plain Text
Duration : 1 h 35 min
Bit rate : 67 b/s
Count of elements : 1514
Stream size : 47.2 KiB (0%)
Language : Italian
Default : No
Forced : No

Text #8
ID : 11
Format : UTF-8
Codec ID : S_TEXT/UTF8
Codec ID/Info : UTF-8 Plain Text
Duration : 1 h 35 min
Bit rate : 67 b/s
Count of elements : 1526
Stream size : 47.1 KiB (0%)
Title : Portugal
Language : Portuguese
Default : No
Forced : No

Menu
00:00:00.000 : en:Amazon Original
00:00:06.000 : en:Scene 2
01:03:45.000 : en:Scene 3
01:04:28.000 : en:Scene 4
01:30:17.000 : en:Acknowledgement
01:30:24.000 : en:End Credits

Download
Для скачивания .torrent файлов необходима регистрация
Сайт не распространяет и не хранит электронные версии произведений, а лишь предоставляет доступ к создаваемому пользователями каталогу ссылок на торрент-файлы, которые содержат только списки хеш-сумм

Страница 1 из 1

Ответить на тему

   Похожие торренты   Торрент 




tracker_crontracker_cron