Регистрация ·  Логин: Пароль: Запомнить   · Забыли пароль?




Ответить на тему
Статистика раздачи
Размер: 5.39 ГБ | Зарегистрирован: 15 ноя 2020, 16:35 | .torrent скачан: 0 раз(а), DHT: [ 1793 ] раз(а)
Сидеров: [ 45  | 0 байт/сек ]   Личеров: [ 2  | 0 байт/сек ]   DHT: [ 45 / 2 ]
Автор Сообщение

Модератор

С нами: 2 года 4 месяца
Сообщения: 3361
Россия

Сообщение 15 ноя 2020, 16:35 

[Цитировать]


Информация о фильме
Название: Болезнь
Оригинальное название: Ill: Final Contagium
Год выхода: 2020
Жанр: ужасы, фантастика, фэнтези
Режиссер: Кай Богацки, Домициано Кристофаро, Лусио А. Рохас
В ролях: Макс Эванс, Фелипе Риос, Арианна Бонарди, Кьяра Павони, Паоло Риччи, Ximena del Solar, Giorgio Agri, Francesco Giannotti, Rayloren Mata

О фильме:
Несколько ужасных историй о распространении по всему миру смертельного экспериментального вируса.



Страна: Германия, Италия
Продолжительность: 01:43:42
Перевод: любительский (одноголосый закадровый) datynet ненормативная лексика
Субтитры: английские
Оригинальная аудиодорожка: английский

Файл
Качество: WEB-DL 1080p
Видео: MPEG-4 AVC, 1080p, 1920:872 (2.2:1), 6611 kbps, 23.976 fps
Аудио 1: АС3, 2 ch, 48 kHz, 192 kbps, 16 bits Русский VO datynet
Аудио 2: Е-AC3, 6 ch, 48 kHz, 640 kbps, 16 bits Английский


General
Unique ID : 132014701719031596094618988313222106151 (0x63511B519BE1CA8F0F06324C7BF0CC27)
Complete name : G:Ill.Final.Contagium.2020.1080p.AMZN.WEB-DL.1080p.mkv
Format : Matroska
Format version : Version 4
File size : 5.39 GiB
Duration : 1 h 43 min
Overall bit rate : 7 445 kb/s
Encoded date : UTC 2020-10-23 16:03:41
Writing application : mkvmerge v20.0.0 ('I Am The Sun') 64-bit
Writing library : libebml v1.3.5 + libmatroska v1.4.8

Video
ID : 1
Format : AVC
Format/Info : Advanced Video Codec
Format profile : [email protected]
Format settings : CABAC / 4 Ref Frames
Format settings, CABAC : Yes
Format settings, Reference frames : 4 frames
Codec ID : V_MPEG4/ISO/AVC
Duration : 1 h 43 min
Bit rate : 6 611 kb/s
Width : 1 920 pixels
Height : 872 pixels
Display aspect ratio : 2.2:1
Original display aspect ratio : 2.2:1
Frame rate mode : Constant
Frame rate : 23.976 (24000/1001) FPS
Color space : YUV
Chroma subsampling : 4:2:0
Bit depth : 8 bits
Scan type : Progressive
Bits/(Pixel*Frame) : 0.165
Stream size : 4.79 GiB (89%)
Language : English
Default : Yes
Forced : No
Color range : Limited
Color primaries : BT.709
Transfer characteristics : BT.709
Matrix coefficients : BT.709

Audio #1
ID : 2
Format : AC-3
Format/Info : Audio Coding 3
Commercial name : Dolby Digital
Codec ID : A_AC3
Duration : 1 h 43 min
Bit rate mode : Constant
Bit rate : 192 kb/s
Channel(s) : 2 channels
Channel layout : L R
Sampling rate : 48.0 kHz
Frame rate : 31.250 FPS (1536 SPF)
Compression mode : Lossy
Stream size : 142 MiB (3%)
Title : VO datynet
Language : Russian
Service kind : Complete Main
Default : Yes
Forced : No

Audio #2
ID : 3
Format : E-AC-3
Format/Info : Enhanced AC-3
Commercial name : Dolby Digital Plus
Codec ID : A_EAC3
Duration : 1 h 43 min
Bit rate mode : Constant
Bit rate : 640 kb/s
Channel(s) : 6 channels
Channel layout : L R C LFE Ls Rs
Sampling rate : 48.0 kHz
Frame rate : 31.250 FPS (1536 SPF)
Compression mode : Lossy
Stream size : 475 MiB (9%)
Language : English
Service kind : Complete Main
Default : No
Forced : No

Text
ID : 4
Format : UTF-8
Codec ID : S_TEXT/UTF8
Codec ID/Info : UTF-8 Plain Text
Duration : 1 h 34 min
Bit rate : 25 b/s
Count of elements : 726
Stream size : 17.7 KiB (0%)
Language : English
Default : No
Forced : No

Download
Для скачивания .torrent файлов необходима регистрация
Сайт не распространяет и не хранит электронные версии произведений, а лишь предоставляет доступ к создаваемому пользователями каталогу ссылок на торрент-файлы, которые содержат только списки хеш-сумм

Страница 1 из 1

Ответить на тему

   Похожие торренты   Торрент 




tracker_crontracker_cron