Регистрация ·  Логин: Пароль: Запомнить   · Забыли пароль?




Ответить на тему
Статистика раздачи
Размер: 3.49 ГБ | Зарегистрирован: 15 ноя 2020, 16:35 | .torrent скачан: 0 раз(а), DHT: [ 2967 ] раз(а)
Сидеров: [ 71  | 0 байт/сек ]   Личеров: [ 3  | 0 байт/сек ]   DHT: [ 71 / 3 ]
Автор Сообщение

Модератор

С нами: 2 года 5 месяцев
Сообщения: 3401
Россия

Сообщение 15 ноя 2020, 16:35 

[Цитировать]


Информация о фильме
Название: Спонтанность
Оригинальное название: Spontaneous
Год выхода: 2020
Жанр: фантастика, фэнтези, комедия
Режиссер: Брайан Даффилд
В ролях: Кэтрин Лэнгфорд, Пайпер Перабо, Чарли Пламмер, Чела Хорсдэл, Роб Хюбель, Кейтлин Бернард, Хэйли Лоу, Ивонн Орджи, Лэйн МакНил, Джейсон П. Тремблей

О фильме:
Когда ученики школы начинают буквально взрываться, старшеклассникам Маре и Дилану остается только лишь выживать в этом жестоком мире, где каждый день может оказаться последним.



Страна: США
Продолжительность: 01:41:42
Перевод: Профессиональный (многоголосый, закадровый) | Flarrow Films

Роли озвучивали: Анастасия Скачкова, Ахилл Намазов, Рина Чернышова, Андрей Маслов, Алина Лихачёва, Рута Новикова и Семён Евсиков

Файл
Формат: MKV
Кодек: MPEG-4 AVC
Качество: WEB-DL 1080p
Видео: 1916х800, ~ 4 597 kb/s, 23.976 FPS, 8 bits
Звук: AC-3, 320 kb/s, 2 channels, 48.0 kHz
Субтитры: русские (отключаемые UTF-8)

General
Unique ID : 112545468213076545754313376739469719139 (0x54AB77FEEDEFF64DB2E9469DC01E7663)
Complete name : C:FlarrowSpontaneous.2020.1080p.Flarrow.Films.mkv
Format : Matroska
Format version : Version 4
File size : 3.49 GiB
Duration : 1 h 41 min
Overall bit rate : 4 918 kb/s
Movie name : Spontaneous.2020.1080p.WEB-DL.DD5.1.H264-FGT
Encoded date : UTC 2020-10-24 15:07:46
Writing application : mkvmerge v32.0.0 ('Astral Progressions') 64-bit
Writing library : libebml v1.3.7 + libmatroska v1.5.0
Cover : Yes
Attachments : small_cover.jpg / small_cover_land.jpg / cover.jpg / cover_land.jpg

Video
ID : 1
Format : AVC
Format/Info : Advanced Video Codec
Format profile : [email protected]
Format settings : CABAC / 5 Ref Frames
Format settings, CABAC : Yes
Format settings, Reference : 5 frames
Codec ID : V_MPEG4/ISO/AVC
Duration : 1 h 41 min
Bit rate : 4 597 kb/s
Width : 1 916 pixels
Height : 800 pixels
Display aspect ratio : 2.40:1
Frame rate mode : Constant
Frame rate : 23.976 (24000/1001) FPS
Color space : YUV
Chroma subsampling : 4:2:0
Bit depth : 8 bits
Scan type : Progressive
Bits/(Pixel*Frame) : 0.125
Stream size : 3.27 GiB (93%)
Title : Spontaneous.2020.1080p.WEB-DL.DD5.1.H264-FGT
Language : English
Default : Yes
Forced : No
Color range : Limited
Color primaries : BT.709
Transfer characteristics : BT.709
Matrix coefficients : BT.709

Audio
ID : 2
Format : AC-3
Format/Info : Audio Coding 3
Commercial name : Dolby Digital
Codec ID : A_AC3
Duration : 1 h 41 min
Bit rate mode : Constant
Bit rate : 320 kb/s
Channel(s) : 2 channels
Channel layout : L R
Sampling rate : 48.0 kHz
Frame rate : 31.250 FPS (1536 SPF)
Compression mode : Lossy
Stream size : 233 MiB (7%)
Language : Russian
Service kind : Complete Main
Default : Yes
Forced : No

Text
ID : 3
Format : UTF-8
Codec ID : S_TEXT/UTF8
Codec ID/Info : UTF-8 Plain Text
Duration : 1 h 35 min
Bit rate : 87 b/s
Count of elements : 1167
Stream size : 61.1 KiB (0%)
Language : Russian
Default : Yes
Forced : No










Релиз от: Flarrow Films
Примечание: Без интро Flarrow Films



Download
Для скачивания .torrent файлов необходима регистрация
Сайт не распространяет и не хранит электронные версии произведений, а лишь предоставляет доступ к создаваемому пользователями каталогу ссылок на торрент-файлы, которые содержат только списки хеш-сумм

Страница 1 из 1

Ответить на тему

   Похожие торренты   Торрент