Регистрация ·  Логин: Пароль: Запомнить   · Забыли пароль?




Ответить на тему
Статистика раздачи
Размер: 747.06 МБ | Зарегистрирован: 15 ноя 2020, 16:35 | .torrent скачан: 0 раз(а), DHT: [ 443 ] раз(а)
Сидеров: [ 9  | 0 байт/сек ]   Личеров: [ 0  | 0 байт/сек ]   DHT: [ 9 / 0 ]
Автор Сообщение

Модератор

С нами: 2 года 4 месяца
Сообщения: 3361
Россия

Сообщение 15 ноя 2020, 16:35 

[Цитировать]


Информация о фильме
Название: Ребекка
Оригинальное название: Rebecca
Год выхода: 2020
Жанр: Триллер, драма
Режиссер: Бен Уитли
В ролях: Лили Джеймс, Арми Хаммер, Кили Хоуз, Кристин Скотт Томас, Сэм Райли, Энн Дауд, Билл Патерсон, Марк Льюис Джонс, Том Гудман-Хилл, Бен Кромптон

О фильме:
Максимиллиан де Уинтер недавно потерял жену Ребекку. Он приезжает в Монте-Карло, где встречает миссис Ван Хоппер и её юную компаньонку. Постепенно Максимиллиан так увлекается молодой особой, что в конце концов женится на ней. Он и новоиспеченная миссис де Уинтер возвращаются в Мэндэрли, владение семьи де Уинтер в Корнуэлле. Там девушку начинает преследовать и подавлять присутствие Ребекки, которое она находит абсолютно во всем.



Страна: Великобритания
Студия: Netflix, Working Title Films
Продолжительность: 02:03:02
Перевод: Профессиональный (многоголосый, закадровый) | HDRezka Studio
Субтитры: Русские (Forced, Full), English

Файл
Формат: Matroska
Качество: WEB-DLRip-AVC
Видео: 720x300 at 24.000 fps, [email protected], ~782 kbps, 0.151 bpp
Аудио: AAC, 2 ch, ~80 kbps - | Русский | -
Формат субтитров: softsub (SRT)

***Релиз от: -=DoMiNo=-

x264 info: frame I:1487 Avg QP:13.78 size: 33509
x264 info: frame P:39305 Avg QP:17.40 size: 9218
x264 info: frame B:136388 Avg QP:19.77 size: 2175

General
Format : Matroska
Format version : Version 4
File size : 747 MiB
Duration : 2 h 3 min
Overall bit rate : 849 kb/s
Movie name : Ребекка.(2020).WEB-DLRip-AVC.[-=DoMiNo=-]
Encoded date : UTC 2020-10-24 07:46:42
Writing application : mkvmerge v8.3.0 ('Over the Horizon') 64bit
Writing library : libebml v1.3.1 + libmatroska v1.4.2
Cover : Yes
Attachments : Cover.jpg

Video
ID : 1
Format : AVC
Format/Info : Advanced Video Codec
Format profile : [email protected]
Format settings : CABAC / 12 Ref Frames
Format settings, CABAC : Yes
Format settings, Reference : 12 frames
Codec ID : V_MPEG4/ISO/AVC
Duration : 2 h 3 min
Bit rate : 782 kb/s
Width : 720 pixels
Height : 300 pixels
Display aspect ratio : 2.40:1
Frame rate mode : Constant
Frame rate : 24.000 FPS
Color space : YUV
Chroma subsampling : 4:2:0
Bit depth : 8 bits
Scan type : Progressive
Bits/(Pixel*Frame) : 0.151
Stream size : 676 MiB (90%)
Title : -=DoMiNo=-
Writing library : x264 core 159 r2991 1771b55
Encoding settings : cabac=1 / ref=12 / deblock=1:-3:-3 / analyse=0x3:0x133 / me=umh / subme=10 / psy=1 / psy_rd=1.00:0.00 / mixed_ref=1 / me_range=32 / chroma_me=1 / trellis=2 / 8x8dct=1 / cqm=0 / deadzone=21,11 / fast_pskip=0 / chroma_qp_offset=-2 / threads=5 / lookahead_threads=1 / sliced_threads=0 / nr=0 / decimate=0 / interlaced=0 / bluray_compat=0 / constrained_intra=0 / bframes=11 / b_pyramid=2 / b_adapt=2 / b_bias=0 / direct=3 / weightb=1 / open_gop=0 / weightp=2 / keyint=240 / keyint_min=24 / scenecut=40 / intra_refresh=0 / rc_lookahead=60 / rc=2pass / mbtree=0 / bitrate=782 / ratetol=1.0 / qcomp=0.65 / qpmin=0 / qpmax=69 / qpstep=4 / cplxblur=20.0 / qblur=0.5 / vbv_maxrate=50000 / vbv_bufsize=62500 / nal_hrd=none / filler=0 / ip_ratio=1.40 / pb_ratio=1.30 / aq=3:1.00
Language : English
Default : Yes
Forced : No

Audio
ID : 2
Format : AAC LC SBR
Format/Info : Advanced Audio Codec Low Complexity with Spectral Band Replication
Commercial name : HE-AAC
Format settings : Explicit
Codec ID : A_AAC-2
Duration : 2 h 3 min
Bit rate : 78.7 kb/s
Channel(s) : 2 channels
Channel layout : L R
Sampling rate : 48.0 kHz
Frame rate : 23.438 FPS (2048 SPF)
Compression mode : Lossy
Stream size : 69.3 MiB (9%)
Title : MVO_[HDRezka Studio]
Language : Russian
Default : Yes
Forced : Yes

Text #1
ID : 3
Format : UTF-8
Codec ID : S_TEXT/UTF8
Codec ID/Info : UTF-8 Plain Text
Duration : 1 h 53 min
Bit rate : 2 b/s
Count of elements : 55
Stream size : 2.03 KiB (0%)
Title : forced
Language : Russian
Default : Yes
Forced : No

Text #2
ID : 4
Format : UTF-8
Codec ID : S_TEXT/UTF8
Codec ID/Info : UTF-8 Plain Text
Duration : 2 h 1 min
Bit rate : 75 b/s
Count of elements : 1272
Stream size : 67.4 KiB (0%)
Language : Russian
Default : No
Forced : No

Text #3
ID : 5
Format : UTF-8
Codec ID : S_TEXT/UTF8
Codec ID/Info : UTF-8 Plain Text
Duration : 1 h 54 min
Bit rate : 59 b/s
Count of elements : 1432
Stream size : 50.0 KiB (0%)
Title : English [CC]
Language : English
Default : No
Forced : No

Menu
00:00:00.000 : :Глава 1
00:08:14.000 : :Глава 2
00:22:28.000 : :Глава 3
00:36:24.000 : :Глава 4
00:45:20.000 : :Глава 5
00:59:56.000 : :Глава 6
01:11:18.000 : :Глава 7
01:24:24.000 : :Глава 8
01:39:08.000 : :Глава 9
01:50:44.000 : :Глава 10

Download
Для скачивания .torrent файлов необходима регистрация
Сайт не распространяет и не хранит электронные версии произведений, а лишь предоставляет доступ к создаваемому пользователями каталогу ссылок на торрент-файлы, которые содержат только списки хеш-сумм

Страница 1 из 1

Ответить на тему

   Похожие торренты   Торрент 




tracker_crontracker_cron