Регистрация ·  Логин: Пароль: Запомнить   · Забыли пароль?




Ответить на тему
Статистика раздачи
Размер: 1.44 ГБ | Зарегистрирован: 15 ноя 2020, 16:34 | .torrent скачан: 0 раз(а), DHT: [ 4796 ] раз(а)
Сидеров: [ 178  | 0 байт/сек ]   Личеров: [ 1  | 0 байт/сек ]   DHT: [ 178 / 1 ]
Автор Сообщение

Модератор

С нами: 2 года 5 месяцев
Сообщения: 3401
Россия

Сообщение 15 ноя 2020, 16:34 

[Цитировать]

После. Глава 2 / After We Collided

Информация о фильме:
Название: После. Глава 2
Оригинальное название: After We Collided
Год выхода: 2020
Жанр: Драма, мелодрама
Режиссер: Роджер Камбл
В ролях: Джозефин Лэнгфорд, Хиро Файнс-Тиффин, Луиза Ломбард, Дилан Спроус, Кэндис Кинг, Чарли Уэбер, Макс Рагоун, Сэлма Блэр, Шэйн Пол МакГи, Роб Эстес
Описание: Встреча с Хардином разделила её жизнь на до и после. Молодые и такие разные – от их страсти буквально разлетаются искры. Однако внезапно в жизни девушки появляется новый знакомый, который готов положить к её ногам весь мир…

Страна: США
Студия: CalMaple, Frayed Pages Entertainment
Продолжительность: 01:45:05
Перевод: Дублированный - iTunes

Информация о файле:
Кодек: AVC
Формат: MKV
Качество: WEB-DLRip-AVC
Видео: MPEG-4 AVC, 1024x428 (2.40:1), 24.000 fps, 1578 kbps, 0.150
Аудио RU: AC3, 6 ch, 48 kHz, 384 kbps
Субтитры: Нет
Навигация по главам: Есть


x264 info: frame I:1414 Avg QP:15.06 size: 58485
x264 info: frame P:39164 Avg QP:18.20 size: 16870
x264 info: frame B:110762 Avg QP:20.40 size: 4521
x264 info: consecutive B-frames: 2.1% 4.3% 5.6% 71.9% 5.6% 8.4% 0.5% 0.4% 0.1% 0.1% 0.2% 0.8%
=======================================
General
Unique ID : 214402277110854370509129436928589753595 (0xA14C6066732880BA03E85BD1007CECFB)
Complete name : D:uTorrentAfter We Collided 2020 from wolf1245 & MediaBit.mkv
Format : Matroska
Format version : Version 4
File size : 1.44 GiB
Duration : 1 h 45 min
Overall bit rate : 1 964 kb/s
Movie name : After We Collided 2020 from wolf1245 & MediaBit
Encoded date : UTC 2020-10-24 02:25:12
Writing application : mkvmerge v51.0.0 ('I Wish') 64-bit
Writing library : libebml v1.4.0 + libmatroska v1.6.2
Cover : Yes
Attachments : cover
Video
ID : 1
Format : AVC
Format/Info : Advanced Video Codec
Format profile : [email protected]
Format settings : CABAC / 11 Ref Frames
Format settings, CABAC : Yes
Format settings, Reference frames : 11 frames
Codec ID : V_MPEG4/ISO/AVC
Duration : 1 h 45 min
Bit rate : 1 579 kb/s
Width : 1 024 pixels
Height : 428 pixels
Display aspect ratio : 2.40:1
Frame rate mode : Constant
Frame rate : 24.000 FPS
Color space : YUV
Chroma subsampling : 4:2:0
Bit depth : 8 bits
Scan type : Progressive
Bits/(Pixel*Frame) : 0.150
Stream size : 1.16 GiB (80%)
Title : wolf1245 & MediaBit
Writing library : x264 core 157 r2958 57baac4
Encoding settings : cabac=1 / ref=11 / deblock=1:-3:-3 / analyse=0x3:0x133 / me=umh / subme=11 / psy=1 / psy_rd=1.02:0.06 / mixed_ref=1 / me_range=48 / chroma_me=1 / trellis=2 / 8x8dct=1 / cqm=0 / deadzone=21,11 / fast_pskip=0 / chroma_qp_offset=-3 / threads=10 / lookahead_threads=2 / sliced_threads=0 / nr=0 / decimate=0 / interlaced=0 / bluray_compat=0 / constrained_intra=0 / bframes=11 / b_pyramid=2 / b_adapt=2 / b_bias=0 / direct=3 / weightb=1 / open_gop=0 / weightp=2 / keyint=240 / keyint_min=24 / scenecut=40 / intra_refresh=0 / rc_lookahead=60 / rc=2pass / mbtree=0 / bitrate=1579 / ratetol=1.0 / qcomp=0.60 / qpmin=0 / qpmax=69 / qpstep=4 / cplxblur=20.0 / qblur=0.5 / vbv_maxrate=50000 / vbv_bufsize=62500 / nal_hrd=none / filler=0 / ip_ratio=1.40 / pb_ratio=1.30 / aq=2:0.80
Language : English
Default : Yes
Forced : No
Color range : Limited
Color primaries : BT.709
Transfer characteristics : BT.709
Matrix coefficients : BT.709
Audio
ID : 2
Format : AC-3
Format/Info : Audio Coding 3
Commercial name : Dolby Digital
Codec ID : A_AC3
Duration : 1 h 45 min
Bit rate mode : Constant
Bit rate : 384 kb/s
Channel(s) : 6 channels
Channel layout : L R C LFE Ls Rs
Sampling rate : 48.0 kHz
Frame rate : 31.250 FPS (1536 SPF)
Compression mode : Lossy
Stream size : 289 MiB (20%)
Title : DUB | iTunes
Language : Russian
Service kind : Complete Main
Default : Yes
Forced : No
Menu
00:00:00.000 : :Глава 1
00:03:05.916 : :Глава 2
00:10:43.124 : :Глава 3
00:22:29.581 : :Глава 4
00:29:44.831 : :Глава 5
00:41:02.789 : :Глава 6
00:47:56.164 : :Глава 7
00:54:40.247 : :Глава 8
00:59:12.288 : :Глава 9
01:07:22.454 : :Глава 10
01:12:53.578 : :Глава 11
01:23:01.494 : :Глава 12
01:31:44.619 : :Глава 13
01:39:29.951 : :Глава 14

Релиз от: & &


Download
Для скачивания .torrent файлов необходима регистрация
Сайт не распространяет и не хранит электронные версии произведений, а лишь предоставляет доступ к создаваемому пользователями каталогу ссылок на торрент-файлы, которые содержат только списки хеш-сумм

Страница 1 из 1

Ответить на тему

   Похожие торренты   Торрент