Регистрация ·  Логин: Пароль: Запомнить   · Забыли пароль?




Ответить на тему
Статистика раздачи
Размер: 747.18 МБ | Зарегистрирован: 15 ноя 2020, 16:34 | .torrent скачан: 0 раз(а), DHT: [ 856 ] раз(а)
Сидеров: [ 14  | 0 байт/сек ]   Личеров: [ 0  | 0 байт/сек ]   DHT: [ 14 / 0 ]
Автор Сообщение

Модератор

С нами: 2 года 4 месяца
Сообщения: 3361
Россия

Сообщение 15 ноя 2020, 16:34 

[Цитировать]

После. Глава 2 / After We Collided

Информация о фильме:
Название: После. Глава 2
Оригинальное название: After We Collided
Год выхода: 2020
Жанр: Драма, мелодрама
Режиссер: Роджер Камбл
В ролях: Джозефин Лэнгфорд, Хиро Файнс-Тиффин, Луиза Ломбард, Дилан Спроус, Кэндис Кинг, Чарли Уэбер, Макс Рагоун, Сэлма Блэр, Шэйн Пол МакГи, Роб Эстес
Описание: Встреча с Хардином разделила её жизнь на до и после. Молодые и такие разные – от их страсти буквально разлетаются искры. Однако внезапно в жизни девушки появляется новый знакомый, который готов положить к её ногам весь мир…

Страна: США
Студия: CalMaple, Frayed Pages Entertainment
Продолжительность: 01:45:05
Перевод: Дублированный - iTunes

Информация о файле:
Кодек: AVC
Формат: MKV
Качество: WEB-DLRip-AVC
Видео: MPEG-4 AVC, 720x302 (2.40:1), 24.000 fps, 896 kbps, 0.172
Аудио RU: AAC-HE, 2 ch, 48 kHz, 96 kbps
Субтитры: Нет
Навигация по главам: Есть


x264 info: frame I:1470 Avg QP:14.81 size: 34706
x264 info: frame P:37907 Avg QP:17.92 size: 9710
x264 info: frame B:111963 Avg QP:19.98 size: 2564
x264 info: consecutive B-frames: 1.9% 3.7% 5.5% 65.4% 9.1% 11.1% 1.1% 0.7% 0.1% 0.2% 0.2% 0.9%
=======================================
General
Unique ID : 99063243186274669657531462378156054133 (0x4A86E2FB1AD839EE44C665F6973DD675)
Complete name : D:uTorrentРипы_от_wolf1245_MediaBitAfter We Collided 2020 from wolf1245 & MediaBit.mkv
Format : Matroska
Format version : Version 4
File size : 747 MiB
Duration : 1 h 45 min
Overall bit rate : 994 kb/s
Movie name : After We Collided 2020 from wolf1245 & MediaBit
Encoded date : UTC 2020-10-23 17:27:39
Writing application : mkvmerge v51.0.0 ('I Wish') 64-bit
Writing library : libebml v1.4.0 + libmatroska v1.6.2
Cover : Yes
Attachments : cover
Video
ID : 1
Format : AVC
Format/Info : Advanced Video Codec
Format profile : [email protected]
Format settings : CABAC / 11 Ref Frames
Format settings, CABAC : Yes
Format settings, Reference frames : 11 frames
Codec ID : V_MPEG4/ISO/AVC
Duration : 1 h 45 min
Bit rate : 896 kb/s
Width : 720 pixels
Height : 302 pixels
Display aspect ratio : 2.40:1
Frame rate mode : Constant
Frame rate : 24.000 FPS
Color space : YUV
Chroma subsampling : 4:2:0
Bit depth : 8 bits
Scan type : Progressive
Bits/(Pixel*Frame) : 0.172
Stream size : 673 MiB (90%)
Title : wolf1245 & MediaBit
Writing library : x264 core 157 r2958 57baac4
Encoding settings : cabac=1 / ref=11 / deblock=1:-3:-3 / analyse=0x3:0x133 / me=umh / subme=11 / psy=1 / psy_rd=0.98:0.06 / mixed_ref=1 / me_range=48 / chroma_me=1 / trellis=2 / 8x8dct=1 / cqm=0 / deadzone=21,11 / fast_pskip=0 / chroma_qp_offset=-3 / threads=10 / lookahead_threads=2 / sliced_threads=0 / nr=0 / decimate=0 / interlaced=0 / bluray_compat=0 / constrained_intra=0 / bframes=11 / b_pyramid=2 / b_adapt=2 / b_bias=0 / direct=3 / weightb=1 / open_gop=0 / weightp=2 / keyint=240 / keyint_min=24 / scenecut=40 / intra_refresh=0 / rc_lookahead=60 / rc=2pass / mbtree=0 / bitrate=896 / ratetol=1.0 / qcomp=0.60 / qpmin=0 / qpmax=69 / qpstep=4 / cplxblur=20.0 / qblur=0.5 / vbv_maxrate=50000 / vbv_bufsize=62500 / nal_hrd=none / filler=0 / ip_ratio=1.40 / pb_ratio=1.30 / aq=1:1.00
Language : English
Default : Yes
Forced : No
Color range : Limited
Color primaries : BT.709
Transfer characteristics : BT.709
Matrix coefficients : BT.709
Audio
ID : 2
Format : AAC LC SBR
Format/Info : Advanced Audio Codec Low Complexity with Spectral Band Replication
Commercial name : HE-AAC
Format settings : Implicit
Codec ID : A_AAC-2
Duration : 1 h 45 min
Bit rate : 96.0 kb/s
Channel(s) : 2 channels
Channel layout : L R
Sampling rate : 48.0 kHz
Frame rate : 23.438 FPS (2048 SPF)
Compression mode : Lossy
Stream size : 72.2 MiB (10%)
Title : DUB | iTunes
Language : Russian
Default : Yes
Forced : No
Menu
00:00:00.000 : :Глава 1
00:03:05.916 : :Глава 2
00:10:43.124 : :Глава 3
00:22:29.581 : :Глава 4
00:29:44.831 : :Глава 5
00:41:02.789 : :Глава 6
00:47:56.164 : :Глава 7
00:54:40.247 : :Глава 8
00:59:12.288 : :Глава 9
01:07:22.454 : :Глава 10
01:12:53.578 : :Глава 11
01:23:01.494 : :Глава 12
01:31:44.619 : :Глава 13
01:39:29.951 : :Глава 14

Релиз от: & &

Download
Для скачивания .torrent файлов необходима регистрация
Сайт не распространяет и не хранит электронные версии произведений, а лишь предоставляет доступ к создаваемому пользователями каталогу ссылок на торрент-файлы, которые содержат только списки хеш-сумм

Страница 1 из 1

Ответить на тему

   Похожие торренты   Торрент 




cron
tracker_crontracker_cron