Регистрация ·  Логин: Пароль: Запомнить   · Забыли пароль?




Ответить на тему
Статистика раздачи
Размер: 3.51 ГБ | Зарегистрирован: 15 ноя 2020, 16:33 | .torrent скачан: 0 раз(а), DHT: [ 0 ] раз(а)
Сидеров: [ 0  | 0 байт/сек ]   Личеров: [ 0  | 0 байт/сек ]   DHT: [ 0 / 0 ]
Автор Сообщение

Модератор

С нами: 2 года 4 месяца
Сообщения: 3361
Россия

Сообщение 15 ноя 2020, 16:33 

[Цитировать]


Информация о фильме
Название: Моя любовь Айсулу
Год выхода: 2020
Жанр: Комедия, приключения
Режиссер: Дархан Саркенов
В ролях: Нурлан Коянбаев, Асель Сагатова, Жакан Утаргалиев, Кэри-Хироюки Тагава, Эркен Ялгашев, Бай Лин

О фильме:
Неуверенный в себе Санжар получает очередной отказ в конкурсе сценаристов. По дороге домой он знакомится с очаровательной девушкой Айсулу и у них возникают взаимные чувства. Вот только в попытке произвести впечатление на девушку при знакомстве, Санжар придумал историю о съемках его фильма в Америке и никак не может ей признаться в этом. Влюбленные все время разговаривают по телефону. Однажды романтичная девушка решает сделать сюрприз молодому человеку и отправляется в США. Санжар вынужден лететь первым рейсом в Америку, чтобы выпросить прощение у возлюбленной.
Страна: Казахстан
Студия: Kazteleproduct
Продолжительность: 01:24:56
Язык: Русский

Файл
Кодек: MPEG-4
Качество: WEBRip 1080p
Видео: MPEG-4 AVC, 5716 Кбит/с, 1920x1080
Звук: AC3, 2 ch, 192 Кбит/с

Общее
Полное имя : C:UsersZverDesktopKINOZAL.TVMoja.lubowi.Aisulu.2020.HDTV.1080i.trackerkino.mp4
Формат : MPEG-4
Профиль формата : Base Media
Идентификатор кодека : isom (mp41)
Размер файла : 3,51 Гбайт
Продолжительность : 1 ч. 24 м.
Режим общего битрейта : Переменный
Общий поток : 5914 Кбит/сек
Дата кодирования : UTC 2020-10-22 13:49:35
Дата пометки : UTC 2020-10-22 13:49:35
Программа кодирования : Bandicam 4.6.4.1728 / GDI

Видео
Идентификатор : 1
Формат : AVC
Формат/Информация : Advanced Video Codec
Профиль формата : [email protected]
Настройки формата : 1 Ref Frames
Параметр CABAC формата : Нет
Параметр RefFrames формата : 1 кадр
Идентификатор кодека : avc1
Идентификатор кодека/Информация : Advanced Video Coding
Продолжительность : 1 ч. 24 м.
Битрейт : 5716 Кбит/сек
Ширина : 1920 пикселей
Высота : 1080 пикселей
Соотношение сторон : 16:9
Режим частоты кадров : Переменный
Частота кадров : 27,941 кадров/сек
Минимальная частота кадров : 0,882 кадр/сек
Максимальная частота кадров : 30,030 кадров/сек
Цветовое пространство : YUV
Субдискретизация насыщенности : 4:2:0
Битовая глубина : 8 бит
Тип развёртки : Прогрессивная
Бит/(Пиксели*Кадры) : 0.099
Размер потока : 3,39 Гбайт (97%)
Язык : English
Дата кодирования : UTC 2020-10-22 13:49:35
Дата пометки : UTC 2020-10-22 13:49:35
Codec configuration box : avcC

Аудио
Идентификатор : 2
Формат : AAC LC
Формат/Информация : Advanced Audio Codec Low Complexity
Идентификатор кодека : mp4a-40-2
Продолжительность : 1 ч. 24 м.
Duration_LastFrame : -8 мс.
Вид битрейта : Переменный
Битрейт : 192 Кбит/сек
Максимальный битрейт : 311 Кбит/сек
Каналы : 2 канала
ChannelLayout : L R
Частота : 48,0 КГц
Частота кадров : 46,875 кадров/сек (1024 SPF)
Метод сжатия : С потерями
Размер потока : 116 Мбайт (3%)
Язык : English
Дата кодирования : UTC 2020-10-22 13:49:35
Дата пометки : UTC 2020-10-22 13:49:35


Download
Для скачивания .torrent файлов необходима регистрация
Сайт не распространяет и не хранит электронные версии произведений, а лишь предоставляет доступ к создаваемому пользователями каталогу ссылок на торрент-файлы, которые содержат только списки хеш-сумм

Страница 1 из 1

Ответить на тему

   Похожие торренты   Торрент 




tracker_crontracker_cron