Регистрация ·  Логин: Пароль: Запомнить   · Забыли пароль?




Ответить на тему
Статистика раздачи
Размер: 7.12 ГБ | Зарегистрирован: 15 ноя 2020, 16:33 | .torrent скачан: 0 раз(а), DHT: [ 5122 ] раз(а)
Сидеров: [ 269  | 0 байт/сек ]   Личеров: [ 3  | 0 байт/сек ]   DHT: [ 269 / 3 ]
Автор Сообщение

Модератор

С нами: 2 года 4 месяца
Сообщения: 3361
Россия

Сообщение 15 ноя 2020, 16:33 

[Цитировать]


Информация о фильме
Название: Тесла
Оригинальное название: Tesla
Год выхода: 2020
Жанр: Драма, биография
Режиссер: Майкл Алмерейда
В ролях: Итэн Хоук, Кайл МакЛахлан, Ив Хьюсон, Джим Гэффиган, Эбон Мосс-Бакрак, Ханна Гросс, Джош Хэмилтон, Джеймс Урбаняк, Люси Уолтерс, Лоис Смит, Ребекка Дайан, Донни Кешаварц



О фильме: Каждый день мы пользуемся его творениями, но даже и не подозреваем, какие провидения лежат в их основе. Фильм рассказывает о жизни выдающегося изобретателя Николы Теслы, его соперничестве с Томасом Эдисоном, отношениях с Энн Морган и разработке современной системы электроснабжения переменным током. Именно он изобрёл ХХ век.

Страна: США
Студия: Passage Pictures (II), RNG Entertainment, Campbell Grobman Films
Продолжительность: 01:42:28
Перевод: Дублированный | iTunes

Качество: WEB-DL 1080p
Видео: MPEG-4 AVC, 1920x1040, 8922 Kbit/s, 23.976 fps
Аудио #01: 48 kHz, AC3, 5.1, 384 Kbps | iTunes | RUS |
Аудио #02: 48 kHz, E-AC3, 5.1, 640 Kbps | Оригинал | ENG |
Субтитры: Русские (Full), английские



General
Unique ID : 243825222196700191814746639312838317158 (0xB76F0797F7008B74E2C167527E69D466)
Complete name : D:Video111Tesla.2020.WEB-DL.1080p.seleZen.mkv
Format : Matroska
Format version : Version 4
File size : 7.12 GiB
Duration : 1 h 42 min
Overall bit rate : 9 948 kb/s
Movie name : Tesla 2020 from селезень
Encoded date : UTC 2020-10-23 07:33:20
Writing application : mkvmerge v40.0.0 ('Old Town Road + Pony') 64-bit
Writing library : libebml v1.3.9 + libmatroska v1.5.2

Video
ID : 1
Format : AVC
Format/Info : Advanced Video Codec
Format profile : [email protected]
Format settings : CABAC / 4 Ref Frames
Format settings, CABAC : Yes
Format settings, Reference : 4 frames
Codec ID : V_MPEG4/ISO/AVC
Duration : 1 h 42 min
Bit rate mode : Constant
Bit rate : 8 922 kb/s
Nominal bit rate : 10 000 kb/s
Width : 1 920 pixels
Height : 1 040 pixels
Display aspect ratio : 1.85:1
Frame rate mode : Constant
Frame rate : 23.976 (24000/1001) FPS
Color space : YUV
Chroma subsampling : 4:2:0
Bit depth : 8 bits
Scan type : Progressive
Bits/(Pixel*Frame) : 0.186
Stream size : 6.39 GiB (90%)
Language : English
Default : Yes
Forced : No
Color range : Limited
Color primaries : BT.709
Transfer characteristics : BT.709
Matrix coefficients : BT.709

Audio #1
ID : 2
Format : AC-3
Format/Info : Audio Coding 3
Commercial name : Dolby Digital
Codec ID : A_AC3
Duration : 1 h 42 min
Bit rate mode : Constant
Bit rate : 384 kb/s
Channel(s) : 6 channels
Channel layout : L R C LFE Ls Rs
Sampling rate : 48.0 kHz
Frame rate : 31.250 FPS (1536 SPF)
Compression mode : Lossy
Stream size : 281 MiB (4%)
Title : iTunes
Language : Russian
Service kind : Complete Main
Default : Yes
Forced : Yes

Audio #2
ID : 3
Format : E-AC-3
Format/Info : Enhanced AC-3
Commercial name : Dolby Digital Plus
Codec ID : A_EAC3
Duration : 1 h 42 min
Bit rate mode : Constant
Bit rate : 640 kb/s
Channel(s) : 6 channels
Channel layout : L R C LFE Ls Rs
Sampling rate : 48.0 kHz
Frame rate : 31.250 FPS (1536 SPF)
Compression mode : Lossy
Stream size : 469 MiB (6%)
Title : Original
Language : English
Service kind : Complete Main
Default : No
Forced : No

Text #1
ID : 4
Format : UTF-8
Codec ID : S_TEXT/UTF8
Codec ID/Info : UTF-8 Plain Text
Duration : 1 h 35 min
Bit rate : 106 b/s
Count of elements : 1360
Stream size : 74.3 KiB (0%)
Title : Full
Language : Russian
Default : No
Forced : No

Text #2
ID : 5
Format : UTF-8
Codec ID : S_TEXT/UTF8
Codec ID/Info : UTF-8 Plain Text
Duration : 1 h 34 min
Bit rate : 58 b/s
Count of elements : 1342
Stream size : 40.7 KiB (0%)
Title : Full
Language : English
Default : No
Forced : No

Text #3
ID : 6
Format : UTF-8
Codec ID : S_TEXT/UTF8
Codec ID/Info : UTF-8 Plain Text
Duration : 1 h 36 min
Bit rate : 61 b/s
Count of elements : 1458
Stream size : 43.1 KiB (0%)
Title : SDH
Language : English
Default : No
Forced : No


Релиз: Присоединяйся к:


Download
Для скачивания .torrent файлов необходима регистрация
Сайт не распространяет и не хранит электронные версии произведений, а лишь предоставляет доступ к создаваемому пользователями каталогу ссылок на торрент-файлы, которые содержат только списки хеш-сумм

Страница 1 из 1

Ответить на тему

   Похожие торренты   Торрент 




tracker_crontracker_cron