Регистрация ·  Логин: Пароль: Запомнить   · Забыли пароль?




Ответить на тему
Статистика раздачи
Размер: 9.58 ГБ | Зарегистрирован: 15 ноя 2020, 16:32 | .torrent скачан: 0 раз(а), DHT: [ 0 ] раз(а)
Сидеров: [ 0  | 0 байт/сек ]   Личеров: [ 0  | 0 байт/сек ]   DHT: [ 0 / 0 ]
Автор Сообщение

Модератор

С нами: 2 года 5 месяцев
Сообщения: 3401
Россия

Сообщение 15 ноя 2020, 16:32 

[Цитировать]


Информация о фильме
Название: Незваный гость
Оригинальное название: Chimipja / Intruder
Год выхода: 2020
Жанр: Триллер, детектив
Режиссер: Сон Вон-пхён
В ролях: Ким Му-ёль, Сон Джи-хё, Е Су-джон, Чхве Сан-хун, Пак Мин-ха, Хо Джун-сок, Со Хи-джон, Лим Сон-у, Чхве Ён-у, Ким Сын-би

О фильме: Молодой архитектор Со-джин уже полгода не может оправиться от гибели жены. Он живёт в большом доме родителей, страдает от посттравматического синдрома и с трудом общается с маленькой дочерью. Внезапно Со-джину звонят из детского приюта и сообщают, что нашлась его младшая сестра Ю-джин, которую он больше 20 лет назад потерял в парке развлечений. Родители радостно принимают новообретённую дочь, и та окружает их заботой, но Со-джину сестрица кажется очень подозрительной.



Страна: Корея Южная
Студия: Ace Maker Movie Works, BA Entertainment
Продолжительность: 01:42:16
Перевод: Дублированный | iTunes

Файл
Формат: MKV
Качество: BDRip 1080p
Видео: MPEG-4 AVC, 1920x804 (2, 40:1), 23.976 кадра/сек, 13, 0 Мбит/сек
Звук: 48 kHz, AC3 Dolby Digital, 3/2 (L, C, R, l, r) + LFE ch, ~384 kbps | RUS |
Субтитры: Русские (Full)

x264 [info]: frame I:1070 Avg QP:13.08 size:234139
x264 [info]: frame P:31221 Avg QP:14.98 size:111906
x264 [info]: frame B:114827 Avg QP:16.88 size: 54427
x264 [info]: consecutive B-frames: 2.6% 3.7% 7.4% 9.0% 11.3% 54.5% 5.9% 0.5% 2.2% 1.7% 1.2%
x264 [info]: mb I I16..4: 10.5% 76.4% 13.1%
x264 [info]: mb P I16..4: 3.1% 37.3% 3.7% P16..4: 18.7% 23.6% 8.1% 1.2% 0.1% skip: 4.1%
x264 [info]: mb B I16..4: 0.6% 5.9% 0.6% B16..8: 39.8% 22.8% 4.3% direct:11.7% skip:14.4% L0:46.9% L1:42.7% BI:10.4%
x264 [info]: 8x8 transform intra:83.8% inter:55.8%
x264 [info]: direct mvs spatial:98.6% temporal:1.4%
x264 [info]: coded y,uvDC,uvAC intra: 89.5% 75.9% 53.3% inter: 52.4% 43.1% 9.1%
x264 [info]: i16 v,h,dc,p: 18% 11% 21% 49%
x264 [info]: i8 v,h,dc,ddl,ddr,vr,hd,vl,hu: 10% 7% 18% 10% 11% 11% 10% 11% 11%
x264 [info]: i4 v,h,dc,ddl,ddr,vr,hd,vl,hu: 30% 11% 21% 6% 7% 7% 6% 6% 7%
x264 [info]: i8c dc,h,v,p: 45% 25% 21% 9%
x264 [info]: Weighted P-Frames: Y:1.3% UV:0.8%
x264 [info]: ref P L0: 49.0% 8.3% 23.1% 10.4% 8.9% 0.3% 0.0%
x264 [info]: ref B L0: 70.8% 20.1% 7.5% 1.5%
x264 [info]: ref B L1: 92.3% 7.7%
x264 [info]: kb/s:13030.00
Общее
Уникальный идентификатор: 126850150140907246134049134661187491840 (0x5F6E734447FF2F88D98D557221555800)
Полное имя: Intruder.2020.BDRip.1080p.mkv
Формат: Matroska
Версия формата: Version 4
Размер файла: 9, 58 Гбайт
Продолжительность: 1 ч. 42 м.
Общий поток: 13, 4 Мбит/сек
Дата кодирования: UTC 2020-10-22 07:10:06
Программа кодирования: mkvmerge v50.0.0 ('Awakenings') 64-bit
Библиотека кодирования: libebml v1.4.0 + libmatroska v1.6.2

Видео
Идентификатор: 1
Формат: AVC
Формат/Информация: Advanced Video Codec
Профиль формата: [email protected]
Настройки формата: CABAC / 5 Ref Frames
Параметр CABAC формата: Да
Параметр RefFrames формата: 5 кадров
Идентификатор кодека: V_MPEG4/ISO/AVC
Продолжительность: 1 ч. 42 м.
Битрейт: 13, 0 Мбит/сек
Ширина: 1 920 пикселей
Высота: 804 пикселя
Соотношение сторон: 2, 40:1
Режим частоты кадров: Постоянный
Частота кадров: 23, 976 (24000/1001) кадра/сек
Цветовое пространство: YUV
Субдискретизация насыщенности: 4:2:0
Битовая глубина: 8 бит
Тип развёртки: Прогрессивная
Бит/(Пиксели*Кадры): 0.352
Размер потока: 9, 31 Гбайт (97%)
Заголовок: Intruder (2020)
Библиотека кодирования: x264 core 152 r2851 ba24899
Настройки программы: cabac=1 / ref=5 / deblock=1:-3:-3 / analyse=0x3:0x133 / me=umh / subme=11 / psy=1 / psy_rd=1.00:0.00 / mixed_ref=1 / me_range=48 / chroma_me=1 / trellis=2 / 8x8dct=1 / cqm=0 / deadzone=21, 11 / fast_pskip=0 / chroma_qp_offset=-2 / threads=24 / lookahead_threads=6 / sliced_threads=0 / nr=0 / decimate=0 / interlaced=0 / bluray_compat=0 / constrained_intra=0 / bframes=10 / b_pyramid=2 / b_adapt=2 / b_bias=0 / direct=3 / weightb=1 / open_gop=0 / weightp=2 / keyint=240 / keyint_min=23 / scenecut=40 / intra_refresh=0 / rc_lookahead=40 / rc=2pass / mbtree=0 / bitrate=13037 / ratetol=1.0 / qcomp=0.60 / qpmin=0 / qpmax=69 / qpstep=4 / cplxblur=20.0 / qblur=0.5 / vbv_maxrate=50000 / vbv_bufsize=62500 / nal_hrd=none / filler=0 / ip_ratio=1.40 / pb_ratio=1.30 / aq=1:1.00
Язык: Korean
Default: Да
Forced: Нет

Аудио
Идентификатор: 2
Формат: AC-3
Формат/Информация: Audio Coding 3
Коммерческое название: Dolby Digital
Идентификатор кодека: A_AC3
Продолжительность: 1 ч. 42 м.
Вид битрейта: Постоянный
Битрейт: 384 Кбит/сек
Каналы: 6 каналов
Channel layout: L R C LFE Ls Rs
Частота: 48, 0 КГц
Частота кадров: 31, 250 кадров/сек (1536 SPF)
Метод сжатия: С потерями
Размер потока: 281 Мбайт (3%)
Заголовок: iTunes
Язык: Russian
Service kind: Complete Main
Default: Да
Forced: Да

Текст
Идентификатор: 3
Формат: UTF-8
Идентификатор кодека: S_TEXT/UTF8
Идентификатор кодека/Информация: UTF-8 Plain Text
Продолжительность: 1 ч. 37 м.
Битрейт: 82 бит/сек
Count of elements: 1224
Размер потока: 59, 4 Кбайт (0%)
Заголовок: full
Язык: Russian
Default: Нет
Forced: Нет

Меню
00:00:00.000: :kor: 01
00:09:26.774: :kor: 02
00:19:14.443: :kor: 03
00:30:17.816: :kor: 04
00:39:17.688: :kor: 05
00:49:52.405: :kor: 06
00:56:32.389: :kor: 07
01:03:42.652: :kor: 08
01:15:06.167: :kor: 09
01:27:47.511: :kor: 10
01:35:54.789: :kor: 11
01:39:15.698: :kor: 12
01:42:15.878: :kor: 13




Download
Для скачивания .torrent файлов необходима регистрация
Сайт не распространяет и не хранит электронные версии произведений, а лишь предоставляет доступ к создаваемому пользователями каталогу ссылок на торрент-файлы, которые содержат только списки хеш-сумм

Страница 1 из 1

Ответить на тему

   Похожие торренты   Торрент 




cron