Регистрация ·  Логин: Пароль: Запомнить   · Забыли пароль?




Ответить на тему
Статистика раздачи
Размер: 1.46 ГБ | Зарегистрирован: 15 ноя 2020, 16:32 | .torrent скачан: 0 раз(а), DHT: [ 65 ] раз(а)
Сидеров: [ 14  | 0 байт/сек ]   Личеров: [ 0  | 0 байт/сек ]   DHT: [ 14 / 0 ]
Автор Сообщение

Модератор

С нами: 2 года 4 месяца
Сообщения: 3361
Россия

Сообщение 15 ноя 2020, 16:32 

[Цитировать]


Информация о фильме
Название: Ненавижу лето
Оригинальное название: Odio l'estate
Год выхода: 2020
Жанр: Комедия
Режиссер: Массимо Венье
В ролях: Альдо, Джакомо Поретти, Джованни, Лучиа Машино, Карлотта Натоли, Мария Ди Биасе, Массимо Раньери, Микеле Плачидо, Роберто Читран, Карло Лука Де Руджиери

О фильме: В центре сюжета три семейства из Милана, чьи судьбы переплетаются на одном из островов на юго-востоке Италии во время летнего отдыха. Безработный Альдо Бальо вместе с любящей женой Кармен и тремя детьми, включая старшего сына Сальво, недавно судимого за угон скутера, арендует домик на пляже, где, по ошибке туристической фирмы, ему придется ютиться с владельцем убыточного обувного магазина Джованни Сторти, приехавшим сюда с женой Паолой и дочерью Алессией, а также дантистом Джакомо Поретти и его супругой Барбарой, имеющей сына Людовико от предыдущего брака. Изначально полагая, что отпуск безнадежно испорчен, познакомившись поближе, три незнакомые семьи меняют свое мнение на обратное.



Страна: Италия
Студия: Agidi, Medusa Film, Sky Cinema
Продолжительность: 01:45:51
Перевод: Любительский многоголосый | Синема УС

Файл
Кодек: XviD
Качество: WEB-DLRip
Видео: 1770 Кбит/с, 720x304, 25.000 кадр/с
Звук: AC3, 48 Гц, 192 Кбит/сек, 2 ch (L + R) | MVO | Синема УС


Общее
Полное имя : D:ТоррентыOdio l'estate (2020) ITA Ac3 5.1 WEB DL 1080p H264 [ArMor]Odio.l.estate.2020.RU.XviD.WEB-DLRip-MediaBit.avi
Формат : AVI
Формат/Информация : Audio Video Interleave
Профиль формата : OpenDML
Размер файла : 1,46 Гбайт
Продолжительность : 1 ч. 45 м.
Общий поток : 1 973 Кбит/сек
Название фильма : Odio l'estate (2020)
Программа кодирования : Lavf58.20.100

Видео
Идентификатор : 0
Формат : MPEG-4 Visual
Профиль формата : Advanced [email protected]
Настройки формата : BVOP1 / Custom Matrix
Параметр BVOP формата : 1
Параметр QPel формата : Нет
Параметр GMC формата : Без точки перехода
Параметр матрицы формата : Выборочная
Идентификатор кодека : XVID
Идентификатор кодека/Подсказка : XviD
Продолжительность : 1 ч. 45 м.
Битрейт : 1 770 Кбит/сек
Ширина : 720 пикселей
Высота : 304 пикселя
Соотношение сторон : 2,40:1
Частота кадров : 25,000 кадров/сек
Цветовое пространство : YUV
Субдискретизация насыщенности : 4:2:0
Битовая глубина : 8 бит
Тип развёртки : Прогрессивная
Метод сжатия : С потерями
Бит/(Пиксели*Кадры) : 0.323
Размер потока : 1,31 Гбайт (90%)
Заголовок : MediaBit
Библиотека кодирования : XviD 67

Аудио
Идентификатор : 1
Формат : AC-3
Формат/Информация : Audio Coding 3
Коммерческое название : Dolby Digital
Идентификатор кодека : 2000
Продолжительность : 1 ч. 45 м.
Вид битрейта : Постоянный
Битрейт : 192 Кбит/сек
Каналы : 2 канала
Channel layout : L R
Частота : 48,0 КГц
Частота кадров : 31,250 кадров/сек (1536 SPF)
Битовая глубина : 16 бит
Метод сжатия : С потерями
Размер потока : 145 Мбайт (10%)
Выравнивание : Соединение по промежуткам
Продолжительность промежутка : 32 мс. (0,80 видеокадр)
Заголовок : MVO [Синема РЈРЎ] MediaBit
Service kind : Complete Main



Релиз от:

Download
Для скачивания .torrent файлов необходима регистрация
Сайт не распространяет и не хранит электронные версии произведений, а лишь предоставляет доступ к создаваемому пользователями каталогу ссылок на торрент-файлы, которые содержат только списки хеш-сумм

Страница 1 из 1

Ответить на тему

   Похожие торренты   Торрент 




tracker_crontracker_cron