Регистрация ·  Логин: Пароль: Запомнить   · Забыли пароль?




Ответить на тему
Статистика раздачи
Размер: 3.01 ГБ | Зарегистрирован: 15 ноя 2020, 16:32 | .torrent скачан: 0 раз(а), DHT: [ 0 ] раз(а)
Сидеров: [ 0  | 0 байт/сек ]   Личеров: [ 0  | 0 байт/сек ]   DHT: [ 0 / 0 ]
Автор Сообщение

Модератор

С нами: 2 года 4 месяца
Сообщения: 3361
Россия

Сообщение 15 ноя 2020, 16:32 

[Цитировать]


Информация о фильме
Название: Ненавижу лето
Оригинальное название: Odio l'estate
Год выхода: 2020
Жанр: Комедия
Режиссер: Массимо Венье
В ролях: Альдо, Джакомо Поретти, Джованни, Лучиа Машино, Карлотта Натоли, Мария Ди Биасе, Массимо Раньери, Микеле Плачидо, Роберто Читран, Карло Лука Де Руджиери

О фильме: В центре сюжета три семейства из Милана, чьи судьбы переплетаются на одном из островов на юго-востоке Италии во время летнего отдыха. Безработный Альдо Бальо вместе с любящей женой Кармен и тремя детьми, включая старшего сына Сальво, недавно судимого за угон скутера, арендует домик на пляже, где, по ошибке туристической фирмы, ему придется ютиться с владельцем убыточного обувного магазина Джованни Сторти, приехавшим сюда с женой Паолой и дочерью Алессией, а также дантистом Джакомо Поретти и его супругой Барбарой, имеющей сына Людовико от предыдущего брака. Изначально полагая, что отпуск безнадежно испорчен, познакомившись поближе, три незнакомые семьи меняют свое мнение на обратное.



Страна: Италия
Студия: Agidi, Medusa Film, Sky Cinema
Продолжительность: 01:45:51
Перевод: Любительский многоголосый | Синема УС

Файл
Кодек: MPEG-4 AVC
Качество: WEB-DL 1080p
Видео: 3500 Кбит/с, 1920x804, 25.000 кадр/с
Звук:
Аудио #1: AC3, 48 Гц, 192 Кбит/сек, 2 ch (L + R) | MVO | Синема УС
Аудио #2: AC3, 48 Гц, 448 Кбит/сек, 6 ch (L C R, + L R, LFE) | Итальянский


Общее
Уникальный идентификатор : 87282289990406010444709833369879988182 (0x41A9F524AA5F0A2C5572584E2F1A47D6)
Полное имя : D:ТоррентыOdio l'estate (2020) ITA Ac3 5.1 WEB DL 1080p H264 [ArMor]Odio.l.estate.2020.RU ITA.x264.WEB-DL-1080p-MediaBit.mkv
Формат : Matroska
Версия формата : Version 4
Размер файла : 3,01 Гбайт
Продолжительность : 1 ч. 45 м.
Общий поток : 4 074 Кбит/сек
Название фильма : Ненавижу лето / Odio l'estate (2020)
Дата кодирования : UTC 2020-10-22 07:33:01
Программа кодирования : mkvmerge v25.0.0 ('Prog Noir') 64-bit
Библиотека кодирования : libebml v1.3.6 + libmatroska v1.4.9 / Lavf58.20.100
Обложка : Yes
Attachments : Cover.jpg

Видео
Идентификатор : 1
Формат : AVC
Формат/Информация : Advanced Video Codec
Профиль формата : [email protected]
Настройки формата : CABAC / 4 Ref Frames
Параметр CABAC формата : Да
Параметр RefFrames формата : 4 кадра
Идентификатор кодека : V_MPEG4/ISO/AVC
Продолжительность : 1 ч. 45 м.
Битрейт : 3 500 Кбит/сек
Ширина : 1 920 пикселей
Высота : 804 пикселя
Соотношение сторон : 2,40:1
Режим частоты кадров : Постоянный
Частота кадров : 25,000 кадров/сек
Цветовое пространство : YUV
Субдискретизация насыщенности : 4:2:0
Битовая глубина : 8 бит
Тип развёртки : Прогрессивная
Бит/(Пиксели*Кадры) : 0.091
Размер потока : 2,54 Гбайт (84%)
Заголовок : CineBlog01HD
Библиотека кодирования : x264 core 157 r2935 545de2f
Настройки программы : cabac=1 / ref=2 / deblock=1:0:0 / analyse=0x1:0x111 / me=hex / subme=6 / psy=1 / psy_rd=1.00:0.00 / mixed_ref=1 / me_range=16 / chroma_me=1 / trellis=1 / 8x8dct=0 / cqm=0 / deadzone=21,11 / fast_pskip=1 / chroma_qp_offset=-2 / threads=18 / lookahead_threads=3 / sliced_threads=0 / nr=0 / decimate=1 / interlaced=0 / bluray_compat=0 / constrained_intra=0 / bframes=3 / b_pyramid=2 / b_adapt=1 / b_bias=0 / direct=1 / weightb=1 / open_gop=0 / weightp=1 / keyint=250 / keyint_min=25 / scenecut=40 / intra_refresh=0 / rc_lookahead=30 / rc=abr / mbtree=1 / bitrate=3500 / ratetol=1.0 / qcomp=0.60 / qpmin=0 / qpmax=69 / qpstep=4 / vbv_maxrate=50000 / vbv_bufsize=62500 / nal_hrd=none / filler=0 / ip_ratio=1.40 / aq=1:1.00
Язык : Italian
Default : Да
Forced : Нет
Цветовой диапазон : Limited
Основные цвета : BT.709
Характеристики трансфера : BT.709
Коэффициенты матрицы : BT.709

Аудио #1
Идентификатор : 2
Формат : AC-3
Формат/Информация : Audio Coding 3
Коммерческое название : Dolby Digital
Идентификатор кодека : A_AC3
Продолжительность : 1 ч. 45 м.
Вид битрейта : Постоянный
Битрейт : 192 Кбит/сек
Каналы : 2 канала
Channel layout : L R
Частота : 48,0 КГц
Частота кадров : 31,250 кадров/сек (1536 SPF)
Метод сжатия : С потерями
Задержка видео : -5 мс.
Размер потока : 145 Мбайт (5%)
Заголовок : MVO [Синема УС] MediaBit
Язык : Russian
Service kind : Complete Main
Default : Да
Forced : Нет

Аудио #2
Идентификатор : 3
Формат : AC-3
Формат/Информация : Audio Coding 3
Коммерческое название : Dolby Digital
Идентификатор кодека : A_AC3
Продолжительность : 1 ч. 45 м.
Вид битрейта : Постоянный
Битрейт : 448 Кбит/сек
Каналы : 6 каналов
Channel layout : L R C LFE Ls Rs
Частота : 48,0 КГц
Частота кадров : 31,250 кадров/сек (1536 SPF)
Метод сжатия : С потерями
Задержка видео : -5 мс.
Размер потока : 339 Мбайт (11%)
Заголовок : Surround
Язык : Italian
Service kind : Complete Main
Default : Нет
Forced : Нет


Релиз от:

Download
Для скачивания .torrent файлов необходима регистрация
Сайт не распространяет и не хранит электронные версии произведений, а лишь предоставляет доступ к создаваемому пользователями каталогу ссылок на торрент-файлы, которые содержат только списки хеш-сумм

Страница 1 из 1

Ответить на тему

   Похожие торренты   Торрент 




tracker_crontracker_cron