Регистрация ·  Логин: Пароль: Запомнить   · Забыли пароль?




Ответить на тему
Статистика раздачи
Размер: 8.96 ГБ | Зарегистрирован: 15 ноя 2020, 16:32 | .torrent скачан: 0 раз(а), DHT: [ 0 ] раз(а)
Сидеров: [ 0  | 0 байт/сек ]   Личеров: [ 0  | 0 байт/сек ]   DHT: [ 0 / 0 ]
Автор Сообщение

Модератор

С нами: 2 года 4 месяца
Сообщения: 3361
Россия

Сообщение 15 ноя 2020, 16:32 

[Цитировать]


Информация о фильме
Название: Незваный гость
Оригинальное название: Chimipja / Intruder
Год выхода: 2020
Жанр: Триллер, детектив
Режиссер: Вон Пхён Сон
В ролях: Му Ёль Ким, Чжи Хё Сон, Су Чон Е, Сан Хун Чхве, Хэ Вон Ли, Ён У Чхве, Хон Нэ Ли, Чжун Сок Хо, Мин Ха Пак, Хи Чжон Со, Джэ Ён Ли, Хэ Ун Ли, Сон Юн Чан, Хён У Со

О фильме:
Молодой архитектор Со-джин уже полгода не может оправиться от гибели жены. Он живёт в большом доме родителей, страдает от посттравматического синдрома и с трудом общается с маленькой дочерью. Внезапно Со-джину звонят из детского приюта и сообщают, что нашлась его младшая сестра Ю-джин, которую он больше 20 лет назад потерял в парке развлечений. Родители радостно принимают новообретённую дочь, и та окружает их заботой, но Со-джину сестрица кажется очень подозрительной.


Страна: Корея Южная
Студия: Ace Maker Movie Works, BA Entertainment
Продолжительность: 01:42:16
Перевод: Дублированный | iTunes

Файл
Кодек: x.264
Качество: BDRip 1080p
Видео: MPEG-4 AVC, 11.5 Mбит/с, 1920x804, 23.976 кадр/с
Аудио #1: Русский (АС3, 6 ch, 384 Кбит/с, 48.0 KHz) Профессиональный (дублированный) iTunes
Аудио #2: Корейский (АС3, 6 ch, 640 Кбит/с, 48.0 KHz)
Субтитры: Русские (форсированные, полные), английские
Трейлер
Источник: Intruder.2020.KOREAN.1080p.BluRay.x264.DTS-WMD
General
Unique ID : 239674145830835892196376420006883469029 (0xB44F8FBA36028472A26AD17EEDB3A6E5)
Complete name : Intruder.2020.Korean.BDRip.1080p.mkv
Format : Matroska
Format version : Version 4
File size : 8.96 GiB
Duration : 1 h 42 min
Overall bit rate : 12.5 Mb/s
Encoded date : UTC 2020-10-21 22:59:56
Writing application : mkvmerge v7.1.0 ('Good Love') 64bit built on Jul 27 2014 13:06:55
Writing library : libebml v1.3.0 + libmatroska v1.4.1

Video
ID : 1
Format : AVC
Format/Info : Advanced Video Codec
Format profile : [email protected]
Format settings : CABAC / 4 Ref Frames
Format settings, CABAC : Yes
Format settings, Reference fra : 4 frames
Codec ID : V_MPEG4/ISO/AVC
Duration : 1 h 42 min
Bit rate : 11.5 Mb/s
Width : 1 920 pixels
Height : 804 pixels
Display aspect ratio : 2.40:1
Frame rate mode : Constant
Frame rate : 23.976 (24000/1001) FPS
Color space : YUV
Chroma subsampling : 4:2:0
Bit depth : 8 bits
Scan type : Progressive
Bits/(Pixel*Frame) : 0.311
Stream size : 8.22 GiB (92%)
Writing library : x264 core 160 r3009 4c9b076
Encoding settings : cabac=1 / ref=4 / deblock=1:-3:-3 / analyse=0x3:0x133 / me=umh / subme=10 / psy=1 / psy_rd=1.00:0.00 / mixed_ref=1 / me_range=32 / chroma_me=1 / trellis=2 / 8x8dct=1 / cqm=0 / deadzone=21,11 / fast_pskip=0 / chroma_qp_offset=-2 / threads=12 / lookahead_threads=3 / sliced_threads=0 / nr=0 / decimate=0 / interlaced=0 / bluray_compat=0 / constrained_intra=0 / bframes=12 / b_pyramid=2 / b_adapt=2 / b_bias=0 / direct=3 / weightb=1 / open_gop=0 / weightp=2 / keyint=250 / keyint_min=23 / scenecut=40 / intra_refresh=0 / rc_lookahead=60 / rc=crf / mbtree=0 / crf=17.5 / qcomp=0.65 / qpmin=0 / qpmax=69 / qpstep=4 / vbv_maxrate=62500 / vbv_bufsize=78125 / crf_max=0.0 / nal_hrd=none / filler=0 / ip_ratio=1.40 / pb_ratio=1.30 / aq=2:1.00
Language : Korean
Default : Yes
Forced : No

Audio #1
ID : 2
Format : AC-3
Format/Info : Audio Coding 3
Commercial name : Dolby Digital
Codec ID : A_AC3
Duration : 1 h 42 min
Bit rate mode : Constant
Bit rate : 384 kb/s
Channel(s) : 6 channels
Channel layout : L R C LFE Ls Rs
Sampling rate : 48.0 kHz
Frame rate : 31.250 FPS (1536 SPF)
Compression mode : Lossy
Stream size : 281 MiB (3%)
Title : iTunes
Language : Russian
Service kind : Complete Main
Default : Yes
Forced : No

Audio #2
ID : 3
Format : AC-3
Format/Info : Audio Coding 3
Commercial name : Dolby Digital
Codec ID : A_AC3
Duration : 1 h 42 min
Bit rate mode : Constant
Bit rate : 640 kb/s
Channel(s) : 6 channels
Channel layout : L R C LFE Ls Rs
Sampling rate : 48.0 kHz
Frame rate : 31.250 FPS (1536 SPF)
Compression mode : Lossy
Stream size : 468 MiB (5%)
Language : Korean
Service kind : Complete Main
Default : No
Forced : No

Text #1
ID : 4
Format : UTF-8
Codec ID : S_TEXT/UTF8
Codec ID/Info : UTF-8 Plain Text
Duration : 1 h 37 min
Bit rate : 1 b/s
Count of elements : 20
Stream size : 967 Bytes (0%)
Title : Forced
Language : Russian
Default : Yes
Forced : No

Text #2
ID : 5
Format : UTF-8
Codec ID : S_TEXT/UTF8
Codec ID/Info : UTF-8 Plain Text
Duration : 1 h 37 min
Bit rate : 82 b/s
Count of elements : 1224
Stream size : 59.4 KiB (0%)
Title : Full
Language : Russian
Default : No
Forced : No

Text #3
ID : 6
Format : UTF-8
Codec ID : S_TEXT/UTF8
Codec ID/Info : UTF-8 Plain Text
Duration : 1 h 37 min
Bit rate : 39 b/s
Count of elements : 1085
Stream size : 28.1 KiB (0%)
Language : English
Default : No
Forced : No

Menu
00:00:00.000 : en:Chapter 01
00:09:26.775 : en:Chapter 02
00:19:14.445 : en:Chapter 03
00:30:17.816 : en:Chapter 04
00:39:17.689 : en:Chapter 05
00:49:52.406 : en:Chapter 06
00:56:32.389 : en:Chapter 07
01:03:42.652 : en:Chapter 08
01:15:06.168 : en:Chapter 09
01:27:47.512 : en:Chapter 10
01:35:54.791 : en:Chapter 11
01:39:15.700 : en:Chapter 12

Download
Для скачивания .torrent файлов необходима регистрация
Сайт не распространяет и не хранит электронные версии произведений, а лишь предоставляет доступ к создаваемому пользователями каталогу ссылок на торрент-файлы, которые содержат только списки хеш-сумм

Страница 1 из 1

Ответить на тему

   Похожие торренты   Торрент 




tracker_crontracker_cron