Регистрация ·  Логин: Пароль: Запомнить   · Забыли пароль?




Ответить на тему
Статистика раздачи
Размер: 1.41 ГБ | Зарегистрирован: 15 ноя 2020, 16:32 | .torrent скачан: 0 раз(а), DHT: [ 478 ] раз(а)
Сидеров: [ 12  | 0 байт/сек ]   Личеров: [ 2  | 0 байт/сек ]   DHT: [ 12 / 2 ]
Автор Сообщение

Модератор

С нами: 2 года 5 месяцев
Сообщения: 3401
Россия

Сообщение 15 ноя 2020, 16:32 

[Цитировать]


«Страшнее врага только дьявол»

Информация о фильме
Название: Призраки войны
Оригинальное название: Ghosts of War
Год выхода: 2020
Жанр: Ужасы, триллер, военный

Режиссер: Эрик Бресс
В ролях: Брентон Туэйтс, Кайл Галлнер, Алан Ричсон, Тео Росси, Скайлар Эстин, Билли Зейн, Вивиан Грэй, Шон Тоуб, Лайла Банки, Яница Михайлова

О фильме:
Французская провинция, 1944 год. Отряд из пяти американских солдат получает приказ охранять особняк, в котором ещё недавно располагалось нацистское верховное командование. Передав дежурство прибывшим, предыдущий отряд, несколько дней проживший в этом доме, подозрительно быстро ретируется, а новенькие надеются на долгожданную передышку и относительный комфорт. Но почти сразу они начинают слышать и видеть нечто, что заставляет содрогаться даже видавших ужасы войны.



Страна: Великобритания
Студия: Miscellaneous Entertainment
Продолжительность: 01:34:45
Перевод:
• Профессиональный (полное дублирование) | iTunes

Файл
Качество: BDRip-AVC
Исходник: Ghost.Of.War.2020.MULTI.COMPLETE.BLURAY-PENTAGON
Формат: MKV
Кодек: MPEG-4 AVC
Видео: 832x346 (2.40:1), 24 fps, MPEG-4 AVC ~ 1754 Kbps avg, 0.254 bit/pixel
Аудио: AC3, 48 kHz, 6 ch, ~384.00 kbps avg | русский | iTunes
Субтитры: Русские (форсированные, полные)
Общее
Уникальный идентификатор : 138910010961256241157614797211435485709 (0x6881184FDBC7B9EA1159CFD919774A0D)
Полное имя : Ghosts.of.War.2020.BDRip.1.41Gb.x264.mkv
Формат : Matroska
Версия формата : Version 4
Размер файла : 1,41 Гбайт
Продолжительность : 1 ч. 34 м.
Общий поток : 2 138 Кбит/сек
Название фильма : Призраки войны / Ghosts of War (2020)
Дата кодирования : UTC 2020-10-22 05:56:06
Программа кодирования : mkvmerge v47.0.0 ('Black Flag') 64-bit
Библиотека кодирования : libebml v1.3.10 + libmatroska v1.5.2
Обложка : Yes
Attachments : cover.jpg

Видео
Идентификатор : 1
Формат : AVC
Формат/Информация : Advanced Video Codec
Профиль формата : [email protected]
Настройки формата : CABAC / 11 Ref Frames
Параметр CABAC формата : Да
Параметр RefFrames формата : 11 кадров
Идентификатор кодека : V_MPEG4/ISO/AVC
Продолжительность : 1 ч. 34 м.
Битрейт : 1 754 Кбит/сек
Ширина : 832 пикселя
Высота : 346 пикселей
Соотношение сторон : 2,40:1
Режим частоты кадров : Постоянный
Частота кадров : 24,000 кадра/сек
Цветовое пространство : YUV
Субдискретизация насыщенности : 4:2:0
Битовая глубина : 8 бит
Тип развёртки : Прогрессивная
Бит/(Пиксели*Кадры) : 0.254
Размер потока : 1,16 Гбайт (82%)
Заголовок : #stillet
Библиотека кодирования : x264 core 152 r2851bm ba24899
Настройки программы : cabac=1 / ref=11 / deblock=1:-2:-2 / analyse=0x3:0x113 / me=umh / subme=10 / psy=1 / psy_rd=1.00:0.15 / mixed_ref=1 / me_range=32 / chroma_me=1 / trellis=2 / 8x8dct=1 / cqm=0 / deadzone=21,11 / fast_pskip=0 / chroma_qp_offset=-3 / threads=8 / lookahead_threads=3 / sliced_threads=0 / nr=0 / decimate=0 / interlaced=0 / bluray_compat=0 / constrained_intra=0 / bframes=10 / b_pyramid=2 / b_adapt=2 / b_bias=0 / direct=3 / weightb=1 / open_gop=0 / weightp=2 / keyint=240 / keyint_min=24 / scenecut=40 / intra_refresh=0 / rc=2pass / mbtree=0 / bitrate=1754 / ratetol=1.0 / qcomp=0.60 / qpmin=0 / qpmax=69 / qpstep=4 / cplxblur=20.0 / qblur=0.5 / ip_ratio=1.40 / pb_ratio=1.30 / aq=1:1.00
Язык : German
Default : Да
Forced : Нет

Аудио
Идентификатор : 2
Формат : AC-3
Формат/Информация : Audio Coding 3
Коммерческое название : Dolby Digital
Идентификатор кодека : A_AC3
Продолжительность : 1 ч. 34 м.
Вид битрейта : Постоянный
Битрейт : 384 Кбит/сек
Каналы : 6 каналов
Channel layout : L R C LFE Ls Rs
Частота : 48,0 КГц
Частота кадров : 31,250 кадров/сек (1536 SPF)
Метод сжатия : С потерями
Размер потока : 260 Мбайт (18%)
Заголовок : iTunes
Язык : Russian
Service kind : Complete Main
Default : Да
Forced : Да

Текст #1
Идентификатор : 3
Формат : UTF-8
Идентификатор кодека : S_TEXT/UTF8
Идентификатор кодека/Информация : UTF-8 Plain Text
Продолжительность : 1 ч. 26 м.
Битрейт : 5 бит/сек
Count of elements : 83
Размер потока : 3,72 Кбайт (0%)
Заголовок : Forced
Язык : Russian
Default : Да
Forced : Нет

Текст #2
Идентификатор : 4
Формат : UTF-8
Идентификатор кодека : S_TEXT/UTF8
Идентификатор кодека/Информация : UTF-8 Plain Text
Продолжительность : 1 ч. 27 м.
Битрейт : 68 бит/сек
Count of elements : 807
Размер потока : 43,9 Кбайт (0%)
Заголовок : Full
Язык : Russian
Default : Нет
Forced : Нет

Меню
00:00:00.000 : de:Глава 01
00:02:47.833 : de:Глава 02
00:09:47.542 : de:Глава 03
00:19:08.625 : de:Глава 04
00:22:22.333 : de:Глава 05
00:25:54.083 : de:Глава 06
00:29:59.292 : de:Глава 07
00:36:36.625 : de:Глава 08
00:46:54.583 : de:Глава 09
00:51:20.500 : de:Глава 10
00:56:07.417 : de:Глава 11
01:03:42.750 : de:Глава 12
01:08:02.833 : de:Глава 13
01:15:33.083 : de:Глава 14
01:23:25.250 : de:Глава 15
01:27:49.542 : de:Глава 16


Download
Для скачивания .torrent файлов необходима регистрация
Сайт не распространяет и не хранит электронные версии произведений, а лишь предоставляет доступ к создаваемому пользователями каталогу ссылок на торрент-файлы, которые содержат только списки хеш-сумм

Страница 1 из 1

Ответить на тему

   Похожие торренты   Торрент