Регистрация ·  Логин: Пароль: Запомнить   · Забыли пароль?




Ответить на тему
Статистика раздачи
Размер: 5.16 ГБ | Зарегистрирован: 15 ноя 2020, 16:31 | .torrent скачан: 0 раз(а), DHT: [ 0 ] раз(а)
Сидеров: [ 0  | 0 байт/сек ]   Личеров: [ 0  | 0 байт/сек ]   DHT: [ 0 / 0 ]
Автор Сообщение

Модератор

С нами: 2 года 5 месяцев
Сообщения: 3401
Россия

Сообщение 15 ноя 2020, 16:31 

[Цитировать]


Название: Заложник
Оригинальное название: Seized
Год выпуска: 2020
Жанр: Боевик, триллер
Режиссер: Айзек Флорентайн
В ролях: Скотт Эдкинс, Марио Ван Пиблз, Кэрли Перес, Стивен Элдер, Джеймс П. Беннетт, Маурисио Мендоса, Луис Гатика, Питер Орган, Кристиан Лейва, Мэттью Гарбач

Описание: Бывший агент спецназа оказывается втянут в борьбу преступных синдикатов, против которых он много лет вел войну. Одна из группировок хочет использовать спецагента как оружие и похищает его сына. Теперь, чтобы спасти своего ребенка, он должен уничтожить три опаснейших мафиозных клана.



Страна: США
Студия: Premiere Entertainment Group, Arramis Films, BondIt Media Capital
Продолжительность: 01:23:49
Перевод: Дублированный | iTunes

Формат: MKV
Качество: BDRip 720p
Видео: MPEG-4 AVC, 1280x694 (1.85:1), 7786 Kbit/s, 23.976 fps
Аудио #01: 48 kHz, AC3, 5.1, 384 Kbps | iTunes | RUS |
Аудио #02: 48 kHz, AC3, 5.1, 640 Kbps | Оригинал | ENG |
Субтитры: Русские (forced, full)

General
Unique ID : 224990983843976574769855025554296112283 (0xA943AFF2E858E57387007C36ABD7849B)
Complete name : D:Seized.2020.BDRip.720p.ExKinoRay.mkv
Format : Matroska
Format version : Version 4
File size : 5.16 GiB
Duration : 1 h 23 min
Overall bit rate : 8 805 kb/s
Movie name : Seized 2020 from ExKinoRay
Encoded date : UTC 2020-10-21 18:11:15
Writing application : mkvmerge v7.3.0 ('Nouages') 64bit built on Oct 22 2014 18:53:34
Writing library : libebml v1.3.0 + libmatroska v1.4.1

Video
ID : 1
Format : AVC
Format/Info : Advanced Video Codec
Format profile : [email protected]
Format settings : CABAC / 9 Ref Frames
Format settings, CABAC : Yes
Format settings, Reference : 9 frames
Codec ID : V_MPEG4/ISO/AVC
Duration : 1 h 23 min
Bit rate : 7 786 kb/s
Width : 1 280 pixels
Height : 694 pixels
Display aspect ratio : 1.85:1
Frame rate mode : Constant
Frame rate : 23.976 (24000/1001) FPS
Color space : YUV
Chroma subsampling : 4:2:0
Bit depth : 8 bits
Scan type : Progressive
Bits/(Pixel*Frame) : 0.366
Stream size : 4.55 GiB (88%)
Writing library : x264 core 146 r2538 121396c
Encoding settings : cabac=1 / ref=9 / deblock=1:-2:-2 / analyse=0x3:0x133 / me=umh / subme=10 / psy=1 / psy_rd=1.06:0.03 / mixed_ref=1 / me_range=32 / chroma_me=1 / trellis=2 / 8x8dct=1 / cqm=0 / deadzone=21,11 / fast_pskip=0 / chroma_qp_offset=-3 / threads=24 / lookahead_threads=4 / sliced_threads=0 / nr=0 / decimate=0 / interlaced=0 / bluray_compat=0 / constrained_intra=0 / bframes=8 / b_pyramid=2 / b_adapt=2 / b_bias=0 / direct=3 / weightb=1 / open_gop=0 / weightp=2 / keyint=240 / keyint_min=23 / scenecut=40 / intra_refresh=0 / rc_lookahead=50 / rc=2pass / mbtree=0 / bitrate=7786 / ratetol=1.0 / qcomp=0.60 / qpmin=0 / qpmax=51 / qpstep=4 / cplxblur=20.0 / qblur=0.5 / vbv_maxrate=50000 / vbv_bufsize=62500 / nal_hrd=none / filler=0 / ip_ratio=1.40 / pb_ratio=1.30 / aq=3:0.80
Language : English
Default : Yes
Forced : No

Audio #1
ID : 2
Format : AC-3
Format/Info : Audio Coding 3
Commercial name : Dolby Digital
Codec ID : A_AC3
Duration : 1 h 23 min
Bit rate mode : Constant
Bit rate : 384 kb/s
Channel(s) : 6 channels
Channel layout : L R C LFE Ls Rs
Sampling rate : 48.0 kHz
Frame rate : 31.250 FPS (1536 SPF)
Compression mode : Lossy
Stream size : 230 MiB (4%)
Title : iTunes
Language : Russian
Service kind : Complete Main
Default : Yes
Forced : No

Audio #2
ID : 3
Format : AC-3
Format/Info : Audio Coding 3
Commercial name : Dolby Digital
Codec ID : A_AC3
Duration : 1 h 23 min
Bit rate mode : Constant
Bit rate : 640 kb/s
Channel(s) : 6 channels
Channel layout : L R C LFE Ls Rs
Sampling rate : 48.0 kHz
Frame rate : 31.250 FPS (1536 SPF)
Compression mode : Lossy
Stream size : 384 MiB (7%)
Title : Original
Language : English
Service kind : Complete Main
Default : No
Forced : No

Text #1
ID : 4
Format : UTF-8
Codec ID : S_TEXT/UTF8
Codec ID/Info : UTF-8 Plain Text
Duration : 1 min 12 s
Bit rate : 98 b/s
Count of elements : 27
Stream size : 888 Bytes (0%)
Title : Forced
Language : Russian
Default : Yes
Forced : No

Text #2
ID : 5
Format : UTF-8
Codec ID : S_TEXT/UTF8
Codec ID/Info : UTF-8 Plain Text
Duration : 1 h 18 min
Bit rate : 72 b/s
Count of elements : 942
Stream size : 41.9 KiB (0%)
Title : Full
Language : Russian
Default : No
Forced : No

Menu
00:00:00.000 : en:Chapter 01
00:08:32.428 : en:Chapter 02
00:16:59.977 : en:Chapter 03
00:25:07.672 : en:Chapter 04
00:33:38.933 : en:Chapter 05
00:42:20.412 : en:Chapter 06
00:50:19.725 : en:Chapter 07
00:58:41.768 : en:Chapter 08
01:07:23.706 : en:Chapter 09
01:15:00.954 : en:Chapter 10




Релиз от:

Автор релиза:


Download
Для скачивания .torrent файлов необходима регистрация
Сайт не распространяет и не хранит электронные версии произведений, а лишь предоставляет доступ к создаваемому пользователями каталогу ссылок на торрент-файлы, которые содержат только списки хеш-сумм

Страница 1 из 1

Ответить на тему

   Похожие торренты   Торрент