Регистрация ·  Логин: Пароль: Запомнить   · Забыли пароль?




Ответить на тему
Статистика раздачи
Размер: 744.05 МБ | Зарегистрирован: 15 ноя 2020, 16:28 | .torrent скачан: 0 раз(а), DHT: [ 411 ] раз(а)
Сидеров: [ 3  | 0 байт/сек ]   Личеров: [ 3  | 0 байт/сек ]   DHT: [ 3 / 3 ]
Автор Сообщение

Модератор

С нами: 2 года 4 месяца
Сообщения: 3361
Россия

Сообщение 15 ноя 2020, 16:28 

[Цитировать]

Информация о фильме
Название: Звонок из подземелья
Оригинальное название: The Call
Год выхода: 2020
Жанр: Ужасы
Режиссер: Тимоти Вудворд мл.
В ролях: Лин Шэй, Тобин Белл, Честер Рашинг, Эрин Сандерс, Майк К. Мэннинг, Слоун Морган Сигел, Джудд Лорманд, Рэнди Дж. Гудвин, Бруклин Энн Миллер, Леа Контрерас

О фильме:
После покушения на убийство пожилой женщины, подозреваемой в том, что она ведьма, четверо друзей подписывают контракт встретиться через пять лет после ее смерти, чтобы позвонить по телефону, который она положила себе в гроб. К их ужасу кто-то на другом конце берет трубку.



Страна: США
Студия: Single Malt Productions, Appreciated Films, BondIt Media Capital
Продолжительность: 01:37:20
Перевод: Любительский многоголосый | @[email protected]
Субтитры: Английские

Файл
Формат: Matroska
Качество: WEB-DLRip-AVC
Видео: 732x304 at 23.976 fps, [email protected], ~973 kbps, 0.182 bpp
Аудио: AAC, 2 ch, ~96 kbps - | Русский | -
Формат субтитров: softsub (SRT)

***Релиз от: -=DoMiNo=-

x264 [info]: frame I:1060 Avg QP:11.95 size: 34983
x264 [info]: frame P:31467 Avg QP:15.05 size: 11633
x264 [info]: frame B:107452 Avg QP:16.64 size: 2852

General
Format : Matroska
Format version : Version 4
File size : 744 MiB
Duration : 1 h 37 min
Overall bit rate : 1 069 kb/s
Movie name : Звонок из подземелья.(2020).WEB-DLRip-AVC.[-=DoMiNo=-]
Encoded date : UTC 2020-10-31 21:50:48
Writing application : mkvmerge v8.3.0 ('Over the Horizon') 64bit
Writing library : libebml v1.3.1 + libmatroska v1.4.2
Cover : Yes
Attachments : Cover.jpg / Cover 2.jpg

Video
ID : 1
Format : AVC
Format/Info : Advanced Video Codec
Format profile : [email protected]
Format settings : CABAC / 10 Ref Frames
Format settings, CABAC : Yes
Format settings, Reference : 10 frames
Codec ID : V_MPEG4/ISO/AVC
Duration : 1 h 37 min
Bit rate : 973 kb/s
Width : 732 pixels
Height : 304 pixels
Display aspect ratio : 2.40:1
Frame rate mode : Constant
Frame rate : 23.976 (24000/1001) FPS
Color space : YUV
Chroma subsampling : 4:2:0
Bit depth : 8 bits
Scan type : Progressive
Bits/(Pixel*Frame) : 0.182
Stream size : 677 MiB (91%)
Title : -=DoMiNo=-
Writing library : x264 core 161 r3027 4121277
Encoding settings : cabac=1 / ref=10 / deblock=1:-3:-3 / analyse=0x3:0x133 / me=umh / subme=10 / psy=1 / psy_rd=1.00:0.15 / mixed_ref=1 / me_range=32 / chroma_me=1 / trellis=2 / 8x8dct=1 / cqm=0 / deadzone=21,11 / fast_pskip=0 / chroma_qp_offset=-3 / threads=6 / lookahead_threads=1 / sliced_threads=0 / nr=0 / decimate=0 / interlaced=0 / bluray_compat=0 / constrained_intra=0 / bframes=10 / b_pyramid=2 / b_adapt=2 / b_bias=0 / direct=3 / weightb=1 / open_gop=0 / weightp=2 / keyint=250 / keyint_min=23 / scenecut=40 / intra_refresh=0 / rc_lookahead=60 / rc=2pass / mbtree=0 / bitrate=973 / ratetol=1.0 / qcomp=0.60 / qpmin=0 / qpmax=69 / qpstep=4 / cplxblur=20.0 / qblur=0.5 / vbv_maxrate=50000 / vbv_bufsize=62500 / nal_hrd=none / filler=0 / ip_ratio=1.40 / pb_ratio=1.30 / aq=3:1.00
Language : English
Default : Yes
Forced : No
Color range : Limited
Color primaries : BT.709
Transfer characteristics : BT.709
Matrix coefficients : BT.709

Audio
ID : 2
Format : AAC LC SBR
Format/Info : Advanced Audio Codec Low Complexity with Spectral Band Replication
Commercial name : HE-AAC
Format settings : Explicit
Codec ID : A_AAC-2
Duration : 1 h 37 min
Bit rate : 96.0 kb/s
Channel(s) : 2 channels
Channel layout : L R
Sampling rate : 48.0 kHz
Frame rate : 23.438 FPS (2048 SPF)
Compression mode : Lossy
Stream size : 65.9 MiB (9%)
Title : MVO
Language : Russian
Default : Yes
Forced : No

Text
ID : 3
Format : UTF-8
Codec ID : S_TEXT/UTF8
Codec ID/Info : UTF-8 Plain Text
Duration : 1 h 29 min
Bit rate : 30 b/s
Count of elements : 893
Stream size : 20.0 KiB (0%)
Language : English
Default : Yes
Forced : No

Download
Для скачивания .torrent файлов необходима регистрация
Сайт не распространяет и не хранит электронные версии произведений, а лишь предоставляет доступ к создаваемому пользователями каталогу ссылок на торрент-файлы, которые содержат только списки хеш-сумм

Страница 1 из 1

Ответить на тему

   Похожие торренты   Торрент 




tracker_crontracker_cron